<?xml version="1.0" standalone="no"?>
<!DOCTYPE svg PUBLIC "-//W3C//DTD SVG 1.1//EN" "http://www.w3.org/Graphics/SVG/1.1/DTD/svg11.dtd" >
<svg xmlns="http://www.w3.org/2000/svg" xmlns:xlink="http://www.w3.org/1999/xlink" version="1.1">
<metadata>
Created by FontForge 20201107 at Tue Aug 31 23:41:11 2021
 By 
Copyright 2011 The Dosis Project Authors (https://github.com/googlefonts/dosis-vf)
</metadata>
<defs>
<font id="Dosis-SemiBold" horiz-adv-x="0" >
  <font-face 
    font-family="Dosis SemiBold"
    font-weight="600"
    font-stretch="normal"
    units-per-em="1000"
    panose-1="0 0 0 0 0 0 0 0 0 0"
    ascent="800"
    descent="-200"
    x-height="474"
    cap-height="731"
    bbox="-135 -237 1074 1095"
    underline-thickness="50"
    underline-position="-125"
    unicode-range="U+000D-FB02"
  />
<missing-glyph horiz-adv-x="370" 
d="M86 45q-16 0 -29.5 11t-13.5 27q0 6 1.5 12t5.5 11l86 130l-86 130q-4 6 -5.5 12t-1.5 11q0 16 13.5 27.5t29.5 11.5q20 0 32 -17l67 -110l67 110q12 17 32 17q16 0 30 -11.5t14 -27.5q0 -5 -1.5 -11t-6.5 -12l-86 -130l86 -130q4 -5 5.5 -11t1.5 -12q0 -16 -13.5 -27
t-30.5 -11q-20 0 -31 17l-67 108l-67 -108q-12 -17 -32 -17z" />
    <glyph glyph-name="fi" unicode="fi" horiz-adv-x="543" 
d="M107 0q-22 0 -36.5 9.5t-14.5 24.5v513q0 55 27.5 103t79.5 77t125 29q40 0 78 -8.5t62 -24t24 -35.5q0 -7 -4 -21.5t-12.5 -26.5t-21.5 -12q-11 0 -24.5 9.5t-36.5 19t-64 9.5q-32 0 -56.5 -9t-40.5 -24.5t-23.5 -36t-7.5 -44.5v-78h111q15 0 22.5 -12t7.5 -27t-7.5 -27
t-22.5 -12h-111v-362q0 -15 -16 -24.5t-38 -9.5zM436 0q-22 0 -37 11t-15 24v405q0 15 15 24.5t37 9.5t37.5 -9.5t15.5 -24.5v-405q0 -13 -15.5 -24t-37.5 -11z" />
    <glyph glyph-name="fl" unicode="fl" horiz-adv-x="554" 
d="M107 0q-22 0 -36.5 9.5t-14.5 24.5v513q0 67 34.5 114t90.5 71t120 24q33 0 69.5 -6.5t68 -21t51.5 -36.5v-657q0 -13 -15.5 -24t-37.5 -11t-37 11t-15 24v607q-15 13 -39.5 20t-48.5 7q-34 0 -65 -13.5t-51 -39.5t-20 -64v-78h111q15 0 22.5 -12t7.5 -27t-7.5 -27
t-22.5 -12h-111v-362q0 -15 -16 -24.5t-38 -9.5z" />
    <glyph glyph-name=".notdef" horiz-adv-x="370" 
d="M86 45q-16 0 -29.5 11t-13.5 27q0 6 1.5 12t5.5 11l86 130l-86 130q-4 6 -5.5 12t-1.5 11q0 16 13.5 27.5t29.5 11.5q20 0 32 -17l67 -110l67 110q12 17 32 17q16 0 30 -11.5t14 -27.5q0 -5 -1.5 -11t-6.5 -12l-86 -130l86 -130q4 -5 5.5 -11t1.5 -12q0 -16 -13.5 -27
t-30.5 -11q-20 0 -31 17l-67 108l-67 -108q-12 -17 -32 -17z" />
    <glyph glyph-name=".null" 
 />
    <glyph glyph-name="nonmarkingreturn" horiz-adv-x="333" 
 />
    <glyph glyph-name="NULL" 
 />
    <glyph glyph-name="NULL" 
 />
    <glyph glyph-name="CR" unicode="&#xd;" horiz-adv-x="200" 
 />
    <glyph glyph-name="space" unicode=" " horiz-adv-x="200" 
 />
    <glyph glyph-name="exclam" unicode="!" horiz-adv-x="214" 
d="M107 188q-16 0 -28.5 8t-12.5 24q0 73 -3 154t-6 162.5t-3 153.5q0 23 15 35.5t38 12.5q22 0 37.5 -12.5t15.5 -35.5q0 -72 -3 -153.5t-6 -162.5t-3 -154q0 -16 -14 -24t-27 -8zM108 -6q-26 0 -43 18t-17 42q0 25 17 42.5t43 17.5q24 0 41.5 -17.5t17.5 -42.5
q0 -24 -17.5 -42t-41.5 -18z" />
    <glyph glyph-name="quotedbl" unicode="&#x22;" horiz-adv-x="290" 
d="M216 568q-17 0 -24 9.5t-7 20.5l-10 141q0 14 13 21.5t28 7.5q16 0 29.5 -7.5t13.5 -21.5l-10 -141q0 -11 -8 -20.5t-25 -9.5zM73 568q-17 0 -24.5 9.5t-7.5 20.5l-10 141q0 14 13.5 21.5t28.5 7.5t28.5 -7.5t13.5 -21.5l-10 -141q0 -11 -7.5 -20.5t-24.5 -9.5z" />
    <glyph glyph-name="numbersign" unicode="#" horiz-adv-x="646" 
d="M167 31q-17 0 -34 10.5t-17 30.5l26 160h-84q-16 0 -24 11t-8 28t8 29t22 12h102l23 137h-85q-16 0 -24 11t-8 28t8 28.5t22 11.5h102l28 162q2 11 15 17t28 6q19 0 34 -10t15 -32l-25 -143h117l27 162q2 11 15.5 17t27.5 6q19 0 34 -10t15 -32l-24 -143h85
q12 0 22.5 -11t10.5 -28t-9.5 -28.5t-21.5 -11.5h-101l-24 -137h85q12 0 23 -11.5t11 -28.5t-10 -28.5t-22 -11.5h-102l-30 -175q-2 -11 -15.5 -18.5t-26.5 -7.5q-11 0 -23 5t-20.5 14t-8.5 22l27 160h-115l-29 -174q-3 -12 -16 -19.5t-26 -7.5zM253 312h116l23 137h-115z
" />
    <glyph glyph-name="dollar" unicode="$" horiz-adv-x="517" 
d="M270 -52q-12 0 -21 7t-9 16v31q-61 1 -108 20t-73.5 46t-26.5 52q0 12 6.5 25t17.5 22.5t23 9.5t24.5 -10.5t30 -25t43 -27t63.5 -15.5v235q-33 12 -66.5 26t-61.5 35.5t-45 54t-17 80.5t16 81t43.5 55t61.5 34t69 16v29q0 10 9 16.5t21 6.5q11 0 20.5 -6.5t9.5 -16.5
v-27q25 -1 53.5 -5.5t53.5 -13t41 -22t16 -31.5q0 -10 -5 -23t-14.5 -23.5t-24.5 -10.5q-12 0 -26.5 8t-36.5 17.5t-57 11.5v-203q32 -12 64.5 -28t59 -39t42.5 -58.5t16 -86.5q0 -92 -50.5 -143.5t-131.5 -62.5v-34q0 -9 -9.5 -16t-20.5 -7zM294 101q41 8 64.5 32.5
t23.5 66.5q0 32 -12 52.5t-32 35t-44 24.5v-211zM246 442v182q-27 -3 -49 -13t-34.5 -27.5t-12.5 -43.5q0 -28 13 -46.5t35 -30t48 -21.5z" />
    <glyph glyph-name="percent" unicode="%" horiz-adv-x="779" 
d="M210 -35q-17 0 -28 11.5t-11 25.5q0 8 4 15l368 735q8 18 29 18q15 0 28.5 -10.5t13.5 -27.5q0 -9 -3 -16l-367 -732q-4 -9 -13.5 -14t-20.5 -5zM168 337q-57 0 -96 28t-39 95v148q0 67 39 95t96 28q39 0 69.5 -12t48.5 -39t18 -72v-148q0 -45 -18 -72t-48.5 -39
t-69.5 -12zM169 401q29 0 46 14.5t17 44.5v148q0 30 -17 44.5t-46 14.5q-30 0 -46.5 -14.5t-16.5 -44.5v-148q0 -30 16.5 -44.5t46.5 -14.5zM611 -3q-58 0 -97 28t-39 95v148q0 67 39 95t97 28q38 0 68.5 -12t48.5 -39t18 -72v-148q0 -45 -18 -72t-48.5 -39t-68.5 -12z
M611 61q29 0 46 14.5t17 44.5v148q0 30 -17 44.5t-46 14.5t-45.5 -14.5t-16.5 -44.5v-148q0 -30 16.5 -44.5t45.5 -14.5z" />
    <glyph glyph-name="ampersand" unicode="&#x26;" horiz-adv-x="630" 
d="M270 -10q-75 0 -129.5 30t-83.5 79.5t-29 107.5q0 48 18 87t48 68.5t62 46.5q-29 34 -51 72t-22 90q0 57 26.5 96.5t72 60t99.5 20.5q58 0 99.5 -19t63 -44.5t21.5 -45.5q0 -19 -15.5 -34t-34.5 -15q-14 0 -24.5 11t-23.5 25.5t-32.5 25t-51.5 10.5q-44 0 -71.5 -25.5
t-27.5 -70.5q0 -32 16 -61t39 -54.5t45 -49.5l176 -190q18 43 21.5 84t5.5 69q1 17 10.5 25.5t36.5 8.5t36 -13t9 -38q0 -23 -5 -57t-16.5 -72t-32.5 -74l85 -90q4 -5 5.5 -10t1.5 -9q0 -16 -15 -29.5t-33 -13.5q-7 0 -13.5 3t-13.5 10l-69 72q-36 -38 -85.5 -62.5
t-117.5 -24.5zM283 83q45 0 76 16.5t51 42.5l-194 204q-19 -12 -37.5 -30t-31 -42t-12.5 -58q0 -36 17 -66.5t50 -48.5t81 -18z" />
    <glyph glyph-name="quotesingle" unicode="'" horiz-adv-x="147" 
d="M73 568q-17 0 -24.5 9.5t-7.5 20.5l-10 141q0 14 13.5 21.5t28.5 7.5t28.5 -7.5t13.5 -21.5l-10 -141q0 -11 -7.5 -20.5t-24.5 -9.5z" />
    <glyph glyph-name="parenleft" unicode="(" horiz-adv-x="325" 
d="M254 -20q-38 0 -74 10.5t-64.5 33t-45.5 56.5t-17 80v414q0 42 17 77.5t46 62t65.5 40.5t74.5 14q30 0 41 -13.5t11 -32.5q0 -21 -9.5 -34t-24.5 -13q-37 0 -62.5 -15t-39 -38t-13.5 -48v-414q0 -35 18 -54t45 -26t52 -7q21 0 27.5 -15t6.5 -32q0 -20 -10.5 -33
t-43.5 -13z" />
    <glyph glyph-name="parenright" unicode=")" horiz-adv-x="325" 
d="M71 -20q-33 0 -43.5 13t-10.5 33q0 17 6.5 32t27.5 15q26 0 52 7t44.5 26t18.5 54v414q0 25 -13.5 48t-39 38t-62.5 15q-15 0 -24.5 13t-9.5 34q0 19 11 32.5t40 13.5q39 0 75 -14t65 -40.5t46.5 -62t17.5 -77.5v-414q0 -46 -17 -80t-46 -56.5t-64.5 -33t-73.5 -10.5z
" />
    <glyph glyph-name="asterisk" unicode="*" horiz-adv-x="460" 
d="M133 347q-8 0 -18.5 4.5t-18.5 13t-8 20.5q0 13 9 23l73 101l-117 34q-12 3 -18 13t-6 23q0 15 11 28t29 13q1 0 4 -0.5t6 -1.5l117 -40l-5 118q1 18 12.5 26.5t26.5 8.5t26.5 -8.5t12.5 -26.5l-5 -120l117 42q6 2 12 2q16 0 26.5 -14.5t10.5 -30.5q0 -11 -6 -20t-19 -12
l-115 -30l77 -106q5 -7 5 -21q0 -17 -13.5 -28t-29.5 -11q-6 0 -14 2.5t-14 11.5l-71 106l-72 -107q-5 -8 -11 -10.5t-14 -2.5z" />
    <glyph glyph-name="plus" unicode="+" horiz-adv-x="443" 
d="M222 90q-18 0 -31.5 9.5t-13.5 24.5v116h-116q-15 0 -24.5 12.5t-9.5 31.5t9.5 32t24.5 13h116v115q0 13 13.5 24t31.5 11q20 0 32 -11t12 -24v-115h115q14 0 25 -13t11 -32t-11 -31.5t-25 -12.5h-115v-116q0 -15 -12 -24.5t-32 -9.5z" />
    <glyph glyph-name="comma" unicode="," horiz-adv-x="184" 
d="M78 -94q-12 0 -24 7.5t-12 20.5q0 7 3 13l22 53q-16 7 -25.5 21.5t-9.5 32.5q0 25 17.5 42.5t41.5 17.5t42 -17t18 -43q0 -3 -1 -9t-6 -19t-15 -38t-27 -67q-3 -8 -10.5 -11.5t-13.5 -3.5z" />
    <glyph glyph-name="hyphen" unicode="-" horiz-adv-x="407" 
d="M73 196q-15 0 -24.5 12.5t-9.5 31.5t9.5 32t24.5 13h260q14 0 25 -13t11 -32t-11 -31.5t-25 -12.5h-260z" />
    <glyph glyph-name="period" unicode="." horiz-adv-x="183" 
d="M92 -6q-26 0 -43 18t-17 42q0 25 17 42.5t43 17.5q24 0 41.5 -17.5t17.5 -42.5q0 -24 -17.5 -42t-41.5 -18z" />
    <glyph glyph-name="slash" unicode="/" horiz-adv-x="481" 
d="M58 -35q-17 0 -28 11.5t-11 25.5q0 8 4 15l368 735q8 18 29 18q15 0 28.5 -10.5t13.5 -27.5q0 -9 -3 -16l-367 -732q-4 -9 -13.5 -14t-20.5 -5z" />
    <glyph glyph-name="zero" unicode="0" horiz-adv-x="549" 
d="M274 -6q-63 0 -114 22t-80.5 71t-29.5 130v291q0 81 29.5 130t80.5 71t114 22t114.5 -22t81 -71t29.5 -130v-291q0 -81 -29.5 -130t-81 -71t-114.5 -22zM274 88q56 0 87.5 31.5t31.5 97.5v291q0 66 -31.5 97.5t-87.5 31.5t-87 -31.5t-31 -97.5v-291q0 -66 31 -97.5
t87 -31.5zM275 319q-19 0 -31 12.5t-12 30.5q0 19 12 30.5t31 11.5t30.5 -11.5t11.5 -30.5q0 -18 -11.5 -30.5t-30.5 -12.5z" />
    <glyph glyph-name="one" unicode="1" horiz-adv-x="267" 
d="M153 0q-20 0 -36.5 9t-16.5 26v556l-35 -44q-6 -5 -11.5 -7.5t-10.5 -2.5q-16 0 -26 13.5t-10 29.5q0 12 6 23t15 18l104 100q5 5 11.5 8t15.5 3q17 0 32 -9t15 -26v-662q0 -17 -16.5 -26t-36.5 -9z" />
    <glyph glyph-name="two" unicode="2" horiz-adv-x="494" 
d="M76 0q-14 0 -30.5 9.5t-16.5 25.5v97q0 41 23.5 75.5t61 65.5t79.5 60.5t79 60t61 63.5t24 72q0 25 -11.5 49t-35.5 40t-62 16q-42 0 -71.5 -24t-29.5 -75q0 -15 -14.5 -27.5t-40.5 -12.5q-22 0 -35 12.5t-13 46.5q0 54 28 93.5t75 61.5t101 22q58 0 107 -25t78.5 -69.5
t29.5 -104.5q0 -53 -23.5 -96t-60.5 -78t-78.5 -64t-78 -55t-60 -52t-23.5 -55v-38h293q14 0 24.5 -13.5t10.5 -32.5t-10.5 -33.5t-24.5 -14.5h-356z" />
    <glyph glyph-name="three" unicode="3" horiz-adv-x="509" 
d="M244 -6q-58 0 -100 16t-69 42t-39.5 57t-12.5 61q0 27 11.5 36t38.5 9q32 0 43 -9.5t11 -30.5q0 -16 7.5 -31.5t21.5 -28t36.5 -20t52.5 -7.5q62 0 91.5 29.5t29.5 94.5v19q0 60 -33.5 84.5t-87.5 24.5q-19 0 -27 13.5t-8 28.5q0 17 8 30t26 13q31 0 54.5 8.5t36.5 32.5
t13 69q0 55 -25.5 79t-74.5 24q-30 0 -50 -7t-32 -19t-17 -26t-5 -30q0 -19 -10.5 -31t-39.5 -12q-23 0 -35 4t-16 15t-4 30q0 24 10 53.5t33.5 56t64.5 43t102 16.5q59 0 104 -17t71 -56t26 -105q0 -63 -21.5 -106.5t-58.5 -60.5q44 -17 73 -54t29 -101v-19
q0 -79 -30.5 -127t-82.5 -69.5t-115 -21.5z" />
    <glyph glyph-name="four" unicode="4" horiz-adv-x="480" 
d="M337 0q-20 0 -36.5 9t-16.5 26v129h-245q-17 0 -27 10.5t-10 28.5q0 5 1.5 11t4.5 11l241 477q9 16 21.5 22.5t25.5 6.5q10 0 22 -5t21 -14t9 -22q0 -6 -4 -16l-207 -411h147v138q0 19 16.5 27t36.5 8t36.5 -8t16.5 -27v-138h50q18 0 26.5 -15.5t8.5 -34.5
q0 -18 -10.5 -33.5t-24.5 -15.5h-50v-129q0 -17 -16.5 -26t-36.5 -9z" />
    <glyph glyph-name="five" unicode="5" horiz-adv-x="495" 
d="M246 -6q-72 0 -122.5 25t-76.5 65.5t-26 86.5q0 29 14 39t38 10q33 0 43.5 -12t10.5 -30q0 -28 15.5 -48.5t42.5 -31t59 -10.5q56 0 88 30.5t32 95.5v19q0 64 -32 95t-87 31h-144q-27 0 -36.5 11.5t-9.5 29.5q0 7 0.5 12.5t1.5 11.5l23 272q2 16 7.5 25.5t16.5 9.5h297
q17 0 25 -14.5t8 -32.5t-8 -32.5t-25 -14.5h-231l-14 -194h89q64 0 114.5 -20t80.5 -66.5t30 -123.5v-19q0 -80 -30.5 -128.5t-81 -70t-112.5 -21.5z" />
    <glyph glyph-name="six" unicode="6" horiz-adv-x="538" 
d="M275 -6q-63 0 -114 22t-81 71t-30 130v291q0 81 30.5 130t82.5 71t117 22q56 0 97.5 -15.5t68.5 -41.5t40 -58t13 -63q0 -26 -12 -35.5t-38 -9.5q-21 0 -38 8.5t-17 31.5q0 28 -16 47.5t-42.5 30.5t-58.5 11q-57 0 -89 -31.5t-32 -97.5v-126q25 31 61.5 44t77.5 13
q57 0 103 -18.5t73.5 -63t27.5 -122.5v-18q0 -81 -29.5 -130t-80.5 -71t-114 -22zM275 82q56 0 87 31t31 98v17q0 69 -31 97.5t-88 28.5q-53 0 -85.5 -26.5t-32.5 -90.5v-26q0 -67 31.5 -98t87.5 -31z" />
    <glyph glyph-name="seven" unicode="7" horiz-adv-x="483" 
d="M150 -3q-16 0 -31.5 6.5t-25 18.5t-9.5 27q0 9 5 20l275 506v62h-237v-94q0 -15 -16.5 -25t-37.5 -10t-36.5 10t-15.5 25v153q0 13 14.5 24t32.5 11h355q16 0 31.5 -11t15.5 -24v-103q0 -12 -6 -28.5t-13 -30.5l-269 -521q-9 -16 -32 -16z" />
    <glyph glyph-name="eight" unicode="8" horiz-adv-x="522" 
d="M261 -6q-63 0 -114 20.5t-81 66t-30 119.5v12q0 77 32.5 122.5t83.5 64.5q-42 16 -67.5 54t-25.5 102t26.5 103t72 56t103.5 17q59 0 104.5 -17t72 -56t26.5 -103t-26 -102t-67 -54q52 -19 83 -64.5t31 -122.5v-12q0 -74 -29.5 -119.5t-80.5 -66t-114 -20.5zM262 82
q56 0 87 32t31 97v18q0 64 -31.5 94.5t-87.5 30.5q-55 0 -87 -30.5t-32 -94.5v-18q0 -67 32.5 -98t87.5 -31zM261 442q48 0 74.5 23.5t26.5 77.5q0 53 -26.5 76.5t-74.5 23.5q-47 0 -73.5 -23.5t-26.5 -76.5q0 -54 26.5 -77.5t73.5 -23.5z" />
    <glyph glyph-name="nine" unicode="9" horiz-adv-x="538" 
d="M259 -6q-56 0 -97.5 15.5t-68.5 41.5t-40.5 58t-13.5 63q0 26 12.5 35.5t37.5 9.5q21 0 38 -8t17 -32q0 -28 16 -47.5t42.5 -30.5t58.5 -11q57 0 89.5 31.5t32.5 97.5v126q-25 -31 -61.5 -44t-78.5 -13q-56 0 -102.5 18.5t-74 63t-27.5 122.5v18q0 81 30 130t80.5 71
t113.5 22q64 0 115 -22t81 -71t30 -130v-291q0 -81 -31 -130t-83 -71t-116 -22zM264 371q54 0 86.5 27t32.5 90v26q0 67 -32 98t-88 31q-55 0 -86.5 -31t-31.5 -98v-17q0 -69 31.5 -97.5t87.5 -28.5z" />
    <glyph glyph-name="colon" unicode=":" horiz-adv-x="212" 
d="M106 302q-26 0 -43 18t-17 42q0 25 17 42.5t43 17.5q24 0 41.5 -17.5t17.5 -42.5q0 -24 -17.5 -42t-41.5 -18zM106 -6q-26 0 -43 18t-17 42q0 25 17 42.5t43 17.5q24 0 41.5 -17.5t17.5 -42.5q0 -24 -17.5 -42t-41.5 -18z" />
    <glyph glyph-name="semicolon" unicode=";" horiz-adv-x="212" 
d="M90 -94q-12 0 -24 7.5t-12 20.5q0 7 3 13l22 53q-15 7 -24.5 21.5t-9.5 32.5q0 25 17 42.5t42 17.5q24 0 41.5 -17t17.5 -43q0 -3 -1 -9t-5.5 -19t-14.5 -38t-28 -67q-3 -8 -10 -11.5t-14 -3.5zM108 302q-25 0 -42 18t-17 42q0 25 17 42.5t42 17.5q24 0 41.5 -17.5
t17.5 -42.5q0 -24 -17.5 -42t-41.5 -18z" />
    <glyph glyph-name="less" unicode="&#x3c;" horiz-adv-x="414" 
d="M323 61q-9 0 -14 4l-263 172q-12 7 -17 18.5t-5 21.5t5.5 21.5t16.5 19.5l263 172q5 4 14 4q17 0 32.5 -14t15.5 -36q0 -20 -14 -29l-210 -138l210 -138q14 -8 14 -29t-15.5 -35t-32.5 -14z" />
    <glyph glyph-name="equal" unicode="=" horiz-adv-x="441" 
d="M92 339q-15 0 -24.5 12t-9.5 32q0 19 9.5 31.5t24.5 12.5h256q14 0 25 -12.5t11 -31.5q0 -20 -11 -32t-25 -12h-256zM92 136q-15 0 -24.5 12t-9.5 32q0 19 9.5 31.5t24.5 12.5h256q14 0 25 -12.5t11 -31.5q0 -20 -11 -32t-25 -12h-256z" />
    <glyph glyph-name="greater" unicode="&#x3e;" horiz-adv-x="414" 
d="M90 61q-16 0 -31.5 14t-15.5 35t14 29l210 138l-210 138q-14 9 -14 29q0 22 15.5 36t31.5 14q10 0 15 -4l263 -172q11 -8 16.5 -19.5t5.5 -21.5t-5.5 -21.5t-16.5 -18.5l-263 -172q-5 -4 -15 -4z" />
    <glyph glyph-name="question" unicode="?" horiz-adv-x="424" 
d="M185 188q-21 0 -30 9.5t-9 36.5q0 50 7.5 81.5t20.5 50.5t26 32q14 14 32 29t35 33t28.5 41.5t11.5 54.5q0 48 -31 74.5t-85 26.5q-35 0 -54.5 -9t-30.5 -21.5t-20 -22t-23 -9.5q-13 0 -27 10.5t-14 30.5q0 21 20.5 45t59.5 40.5t93 16.5q63 0 107.5 -22.5t68.5 -61.5
t24 -88q0 -42 -15 -74.5t-35.5 -58t-41 -43.5t-33.5 -31q-21 -19 -30 -39.5t-11 -44.5t-2 -56q0 -12 -9 -21.5t-33 -9.5zM186 -6q-26 0 -43 18t-17 42q0 25 17.5 42.5t42.5 17.5q24 0 41.5 -17.5t17.5 -42.5q0 -24 -17 -42t-42 -18z" />
    <glyph glyph-name="at" unicode="@" horiz-adv-x="734" 
d="M334 -121q-56 0 -107.5 20t-92.5 61t-64.5 104t-23.5 148q0 98 35 178.5t108.5 127.5t188.5 47q103 0 175 -38.5t109.5 -112t37.5 -177.5q0 -57 -14 -107t-44 -80.5t-79 -30.5q-41 0 -68.5 20.5t-34.5 49.5q-24 -29 -52.5 -46t-70.5 -17q-32 0 -61 11.5t-47 36.5t-18 65
q0 47 25.5 72.5t70.5 36t103 10.5h37v17q0 38 -21.5 56.5t-66.5 18.5q-31 0 -49 -6.5t-28.5 -13t-19.5 -6.5q-8 0 -14 7.5t-9.5 17t-3.5 16.5q0 17 20.5 30.5t52 21t63.5 7.5q44 0 78.5 -15t55 -43.5t20.5 -72.5v-168q4 -25 16 -37t28 -12q20 0 32 15t18.5 38t8.5 48t2 46
q0 132 -61.5 205t-191.5 73q-75 0 -125.5 -23t-80 -64t-42 -92.5t-12.5 -108.5q0 -53 11 -101.5t37.5 -86.5t71 -60t109.5 -22q42 0 68 7t42 13.5t27 6.5q13 0 20 -11.5t7 -19.5q0 -14 -17 -25t-44.5 -19t-58 -12t-56.5 -4zM354 86q27 0 48.5 12t34.5 31t13 38v41h-30
q-37 0 -64.5 -6t-43 -20.5t-15.5 -41.5q0 -28 16 -41t41 -13z" />
    <glyph glyph-name="A" unicode="A" horiz-adv-x="561" 
d="M79 0q-14 0 -30 6t-26 15.5t-10 22.5q0 3 1 9l199 648q6 18 25.5 27t41.5 9q23 0 42.5 -9t25.5 -27l198 -648q2 -6 2 -9q0 -12 -10.5 -22t-26 -16t-30.5 -6q-13 0 -22.5 5t-13.5 17l-41 142h-248l-40 -142q-3 -12 -13.5 -17t-23.5 -5zM180 249h200l-100 343z" />
    <glyph glyph-name="B" unicode="B" horiz-adv-x="553" 
d="M113 0q-21 0 -34 10t-13 24v662q0 17 15 26t32 9h182q54 0 100 -14t74 -51.5t28 -107.5q0 -63 -22.5 -104t-62.5 -58q31 -12 54 -31.5t36 -52t13 -83.5v-19q0 -77 -26 -123t-71 -66.5t-102 -20.5h-203zM171 94h125q54 0 83.5 29.5t29.5 94.5v16q0 66 -29.5 93t-83.5 27
h-125v-260zM171 438h120q51 0 75.5 26t24.5 77q0 34 -12.5 55t-35.5 31t-54 10h-118v-199z" />
    <glyph glyph-name="C" unicode="C" horiz-adv-x="541" 
d="M280 -6q-60 0 -110.5 22t-80.5 71t-30 130v291q0 81 30 130t81 71t111 22q69 0 119.5 -23.5t79 -64t28.5 -93.5q0 -34 -13 -44.5t-40 -10.5q-24 0 -38 8.5t-15 26.5q-1 13 -5 31t-15.5 35.5t-34.5 29t-63 11.5q-58 0 -89 -31.5t-31 -97.5v-291q0 -66 31.5 -97.5
t91.5 -31.5q38 0 60.5 11.5t33.5 29t15 37t6 35.5q1 19 15.5 27t36.5 8q28 0 41 -11t13 -44q0 -54 -28.5 -96.5t-79.5 -66.5t-120 -24z" />
    <glyph glyph-name="D" unicode="D" horiz-adv-x="573" 
d="M113 0q-21 0 -34 10t-13 24v663q0 14 13 24t34 10h177q63 0 114.5 -22t81 -71t29.5 -130v-285q0 -81 -29.5 -130t-81 -71t-114.5 -22h-177zM172 94h118q56 0 87.5 31.5t31.5 97.5v285q0 66 -31.5 97.5t-87.5 31.5h-118v-543z" />
    <glyph glyph-name="E" unicode="E" horiz-adv-x="522" 
d="M113 0q-17 0 -32 9t-15 26v661q0 17 15 26t32 9h356q19 0 27 -15t8 -31q0 -19 -9 -33.5t-26 -14.5h-297v-229h154q17 0 26 -13t9 -30q0 -14 -8 -27.5t-27 -13.5h-154v-230h297q17 0 26 -14t9 -34q0 -16 -8 -31t-27 -15h-356z" />
    <glyph glyph-name="F" unicode="F" horiz-adv-x="504" 
d="M119 0q-20 0 -36.5 8.5t-16.5 26.5v661q0 17 15 26t32 9h351q18 0 26 -15t8 -31q0 -19 -8.5 -33.5t-25.5 -14.5h-292v-229h155q17 0 25.5 -13t8.5 -30q0 -14 -8 -27.5t-26 -13.5h-155v-289q0 -18 -16.5 -26.5t-36.5 -8.5z" />
    <glyph glyph-name="G" unicode="G" horiz-adv-x="555" 
d="M283 -6q-64 0 -114.5 22t-80 71t-29.5 130v291q0 81 29.5 130t80 71t111.5 22q68 0 119 -23t80 -64t29 -98q0 -30 -13.5 -40.5t-39.5 -10.5q-21 0 -36.5 7.5t-16.5 27.5q-3 29 -14 53.5t-36 39t-69 14.5q-56 0 -87.5 -31.5t-31.5 -97.5v-291q0 -66 31.5 -97.5t87.5 -31.5
q55 0 87 31.5t32 97.5v82h-101q-16 0 -25 13t-9 30q0 15 9 28.5t25 13.5h172q17 0 26 -10.5t9 -25.5v-131q0 -81 -30 -130t-81 -71t-114 -22z" />
    <glyph glyph-name="H" unicode="H" horiz-adv-x="593" 
d="M119 0q-20 0 -36.5 9t-16.5 26v662q0 18 16.5 26t36.5 8t36.5 -8t16.5 -26v-276h249v276q0 18 16.5 26t36.5 8t36.5 -8t16.5 -26v-662q0 -17 -16.5 -26t-36.5 -9t-36.5 9t-16.5 26v302h-249v-302q0 -17 -16.5 -26t-36.5 -9z" />
    <glyph glyph-name="I" unicode="I" horiz-adv-x="238" 
d="M119 0q-20 0 -36.5 9t-16.5 26v662q0 18 16.5 26t36.5 8t36.5 -8t16.5 -26v-662q0 -17 -16.5 -26t-36.5 -9z" />
    <glyph glyph-name="J" unicode="J" horiz-adv-x="526" 
d="M242 -6q-66 0 -118 23.5t-81 66.5t-29 101q0 30 13.5 40.5t39.5 10.5q21 0 36.5 -7.5t16.5 -27.5q1 -29 13 -55t38 -42t67 -16q57 0 88.5 31.5t31.5 97.5v420h-117q-17 0 -26 14.5t-9 33.5q0 16 8 31t27 15h175q19 0 33.5 -9t14.5 -26v-479q0 -81 -30 -130t-80 -71
t-112 -22z" />
    <glyph glyph-name="K" unicode="K" horiz-adv-x="542" 
d="M119 0q-20 0 -36.5 9t-16.5 26v662q0 18 16.5 26t36.5 8t36.5 -8t16.5 -26v-304l244 323q11 15 30 15q13 0 27.5 -8t24 -20.5t9.5 -26.5q0 -4 -2 -10t-6 -11l-192 -240l228 -347q6 -9 6 -19q0 -13 -9 -25t-23.5 -19.5t-29.5 -7.5q-11 0 -21 4.5t-17 15.5l-204 309
l-65 -82v-209q0 -17 -16.5 -26t-36.5 -9z" />
    <glyph glyph-name="L" unicode="L" horiz-adv-x="475" 
d="M113 0q-17 0 -32 9t-15 26v662q0 18 16.5 26t36.5 8t36.5 -8t16.5 -26v-603h260q16 0 24 -14.5t8 -32.5q0 -17 -8 -32t-24 -15h-319z" />
    <glyph glyph-name="M" unicode="M" horiz-adv-x="687" 
d="M119 0q-20 0 -36.5 9t-16.5 26v643q0 30 16.5 41.5t36.5 11.5q19 0 33 -5.5t26 -18.5t25 -36l140 -265l142 265q13 23 24.5 36t25.5 18.5t33 5.5q21 0 37 -11.5t16 -41.5v-643q0 -17 -16.5 -26t-36.5 -9t-36.5 9t-16.5 26v480l-134 -248q-8 -13 -18 -18.5t-21 -5.5
q-9 0 -19 5t-17 19l-134 254v-486q0 -17 -16.5 -26t-36.5 -9z" />
    <glyph glyph-name="N" unicode="N" horiz-adv-x="593" 
d="M119 0q-20 0 -36.5 9t-16.5 26v661q0 19 16.5 27t36.5 8q19 0 32.5 -5.5t24.5 -18.5t23 -36l222 -433v459q0 18 16.5 26t36.5 8t36.5 -8t16.5 -26v-662q0 -17 -16.5 -26t-36.5 -9t-36 10t-27 29l-239 455v-459q0 -17 -16.5 -26t-36.5 -9z" />
    <glyph glyph-name="O" unicode="O" horiz-adv-x="566" 
d="M283 -6q-64 0 -114.5 22t-80 71t-29.5 130v291q0 81 29.5 130t80 71t114.5 22q63 0 114 -22t81 -71t30 -130v-291q0 -81 -30 -130t-81 -71t-114 -22zM283 88q55 0 87 31.5t32 97.5v291q0 66 -31.5 97.5t-87.5 31.5t-87.5 -31.5t-31.5 -97.5v-291q0 -66 31.5 -97.5
t87.5 -31.5z" />
    <glyph glyph-name="P" unicode="P" horiz-adv-x="546" 
d="M119 0q-20 0 -36.5 9t-16.5 26v662q0 14 11.5 24t29.5 10h195q61 0 111 -21.5t79 -70t29 -128.5v-8q0 -80 -29.5 -129t-81 -70.5t-114.5 -21.5h-124v-247q0 -17 -16.5 -26t-36.5 -9zM172 366h124q56 0 87.5 32t31.5 98v12q0 66 -31.5 97.5t-87.5 31.5h-124v-271z" />
    <glyph glyph-name="Q" unicode="Q" horiz-adv-x="566" 
d="M283 -109q-13 0 -24 9t-11 26v70q-55 5 -98 29t-67 71.5t-24 120.5v291q0 82 29.5 130.5t80 70.5t114.5 22q63 0 114 -22t81 -70.5t30 -130.5v-291q0 -73 -24.5 -120.5t-67.5 -71.5t-97 -29v-70q0 -17 -11.5 -26t-24.5 -9zM248 94v61q0 18 11 26t24 8t24.5 -8t11.5 -26
v-60q39 8 61 38t22 84v291q0 66 -32 97.5t-87 31.5q-56 0 -87.5 -31.5t-31.5 -97.5v-291q0 -54 22 -84t62 -39z" />
    <glyph glyph-name="R" unicode="R" horiz-adv-x="553" 
d="M460 -3q-13 0 -23.5 9t-17.5 22l-147 286h-100v-279q0 -17 -16.5 -26t-36.5 -9t-36.5 9t-16.5 26v662q0 14 9.5 24t26.5 10h190q63 0 115 -18.5t83 -63t31 -122.5q0 -60 -18.5 -100t-50 -63.5t-71.5 -34.5l140 -263q2 -3 3 -7.5t1 -7.5q0 -13 -10 -25.5t-24.5 -20.5
t-30.5 -8zM172 399h120q56 0 89.5 27t33.5 92t-33.5 92t-89.5 27h-120v-238z" />
    <glyph glyph-name="S" unicode="S" horiz-adv-x="511" 
d="M250 -8q-65 0 -115 19t-78 46.5t-28 52.5q0 12 6.5 25t17 22.5t22.5 9.5q14 0 26.5 -11.5t30.5 -27.5t45 -28t69 -12q36 0 64.5 11.5t45 35t16.5 59.5q0 38 -17.5 63t-47 42t-63.5 31t-69 30t-64 38.5t-46.5 57t-17.5 86.5q0 55 20.5 92t54.5 59t75 31.5t81 9.5
q25 0 55.5 -3.5t59.5 -12t48 -22.5t19 -34q0 -10 -5 -23.5t-14.5 -23.5t-24.5 -10q-13 0 -29 9.5t-41.5 19t-67.5 9.5q-36 0 -64.5 -10t-44.5 -29.5t-16 -51.5t17.5 -52.5t46.5 -35t63.5 -27.5t69 -30.5t64 -42.5t47 -63.5t17.5 -95.5q0 -72 -29.5 -119.5t-81 -70.5
t-117.5 -23z" />
    <glyph glyph-name="T" unicode="T" horiz-adv-x="506" 
d="M253 0q-20 0 -36.5 9t-16.5 26v599h-155q-16 0 -25 15t-9 34q0 18 8 33t26 15h415q19 0 27 -15t8 -32q0 -20 -8.5 -35t-26.5 -15h-154v-599q0 -17 -16.5 -26t-36.5 -9z" />
    <glyph glyph-name="U" unicode="U" horiz-adv-x="582" 
d="M291 -6q-64 0 -116 22t-82 71t-30 130v480q0 18 16 26t37 8q19 0 36 -8t17 -26v-480q0 -66 32 -97.5t90 -31.5q57 0 90 31.5t33 97.5v480q0 18 16 26t37 8q19 0 36 -8t17 -26v-480q0 -81 -30.5 -130t-82.5 -71t-116 -22z" />
    <glyph glyph-name="V" unicode="V" horiz-adv-x="560" 
d="M280 -6q-22 0 -41.5 9t-25.5 27l-199 648q-2 6 -2 9q0 13 10.5 22.5t26 15.5t29.5 6t24 -5t13 -17l165 -570l164 570q4 12 14 17t23 5q15 0 30 -6t25.5 -15.5t10.5 -22.5q0 -2 -0.5 -4t-0.5 -5l-198 -648q-6 -18 -25.5 -27t-42.5 -9z" />
    <glyph glyph-name="W" unicode="W" horiz-adv-x="845" 
d="M280 -6q-22 0 -42 9t-26 27l-198 648q-1 5 -1 10q0 13 10 22.5t25.5 15t30.5 5.5q13 0 23.5 -5t13.5 -17l163 -570l91 358q4 16 19.5 23.5t32.5 7.5q19 0 34 -7.5t19 -23.5l91 -358l163 570q4 12 14 17t23 5q15 0 30 -5.5t25.5 -15t10.5 -22.5q0 -5 -2 -10l-197 -648
q-6 -18 -25.5 -27t-42.5 -9q-22 0 -42 9t-24 27l-77 302l-75 -302q-5 -18 -24.5 -27t-42.5 -9z" />
    <glyph glyph-name="X" unicode="X" horiz-adv-x="530" 
d="M84 -3q-14 0 -30 7t-27 19t-11 26q0 10 7 21l172 296l-167 294q-8 14 -8 26q0 14 10 25t25.5 17t30.5 6t24.5 -8.5t15.5 -21.5l139 -256l139 256q7 13 17 21.5t23 8.5q15 0 30.5 -6t26 -17t10.5 -25q0 -12 -8 -26l-168 -294l173 -296q6 -11 6 -21q0 -14 -11 -26
t-26.5 -19t-30.5 -7q-11 0 -20 7.5t-14 16.5l-147 266l-147 -266q-5 -9 -13.5 -16.5t-20.5 -7.5z" />
    <glyph glyph-name="Y" unicode="Y" horiz-adv-x="556" 
d="M278 0q-20 0 -36.5 9t-16.5 26v253q0 6 -3 11l-207 373q-2 5 -2.5 8.5t-0.5 6.5q0 13 11 22.5t26.5 15.5t29.5 6q13 0 20.5 -6t13.5 -18l165 -317l164 317q7 12 14.5 18t20.5 6q14 0 29.5 -6t26.5 -15.5t11 -22.5q0 -3 -0.5 -6.5t-3.5 -8.5l-206 -373q-3 -5 -3 -11v-253
q0 -17 -16.5 -26t-36.5 -9z" />
    <glyph glyph-name="Z" unicode="Z" horiz-adv-x="506" 
d="M50 0q-17 0 -25 9t-8 22q0 18 11 37l310 569h-271q-16 0 -25.5 14t-9.5 33q0 17 8.5 32t26.5 15h373q17 0 25.5 -8.5t8.5 -21.5q0 -17 -12 -39l-310 -568h303q17 0 26 -15t9 -32t-9 -32t-26 -15h-405z" />
    <glyph glyph-name="bracketleft" unicode="[" horiz-adv-x="326" 
d="M107 -21q-17 0 -32 9t-15 26v719q0 17 15 26t32 9h168q17 0 25.5 -14.5t8.5 -31.5q0 -19 -9 -33.5t-25 -14.5h-109v-601h109q16 0 25 -14t9 -34q0 -17 -8.5 -31.5t-25.5 -14.5h-168z" />
    <glyph glyph-name="backslash" unicode="\" horiz-adv-x="364" 
d="M302 -1q-11 0 -20.5 6.5t-12.5 17.5l-245 682q-2 6 -2 12q0 15 12.5 26.5t28.5 11.5q11 0 20 -5t13 -17l245 -685q1 -3 1 -5.5v-5.5q0 -14 -11.5 -26t-28.5 -12z" />
    <glyph glyph-name="bracketright" unicode="]" horiz-adv-x="326" 
d="M51 -21q-18 0 -26 14.5t-8 31.5q0 20 9 34t25 14h109v601h-109q-16 0 -25 14.5t-9 33.5q0 17 8 31.5t26 14.5h168q18 0 32.5 -9t14.5 -26v-719q0 -17 -14.5 -26t-32.5 -9h-168z" />
    <glyph glyph-name="asciicircum" unicode="^" horiz-adv-x="279" 
d="M26 582q-11 0 -18.5 10.5t-7.5 24.5q0 9 4.5 17.5t13.5 13.5l104 56q9 5 17 5t17 -5l104 -55q11 -5 15 -14.5t4 -18.5q0 -13 -7 -23.5t-19 -10.5q-2 0 -4.5 1t-5.5 2l-104 56l-104 -56q-2 -1 -4.5 -2t-4.5 -1z" />
    <glyph glyph-name="underscore" unicode="_" horiz-adv-x="322" 
d="M1 -89q-15 0 -24.5 12.5t-9.5 31.5t9.5 32t24.5 13h320q14 0 25 -13t11 -32t-11 -31.5t-25 -12.5h-320z" />
    <glyph glyph-name="grave" unicode="`" horiz-adv-x="184" 
d="M150 577q-4 0 -7 1l-6 2l-121 61q-16 8 -16 27q0 14 9.5 27.5t24.5 13.5q5 0 11 -2l124 -63q15 -8 15 -26q0 -14 -9.5 -27.5t-24.5 -13.5z" />
    <glyph glyph-name="a" unicode="a" horiz-adv-x="459" 
d="M158 -8q-55 0 -94 32.5t-39 99.5q0 57 30 88t82.5 43t121.5 12h44v18q0 26 -9.5 50.5t-31 41t-58.5 16.5t-57 -7t-32 -15t-22 -8q-18 0 -28 17.5t-10 35.5t23.5 32.5t58.5 23t69 8.5q74 0 118 -27.5t64 -71.5t20 -95v-251q0 -14 -14.5 -24.5t-36.5 -10.5q-20 0 -34 10.5
t-14 24.5v35q-26 -30 -63 -54t-88 -24zM196 72q25 0 49.5 15t41 38t16.5 47v37h-25q-38 0 -72 -4.5t-54.5 -20t-20.5 -47.5q0 -34 18.5 -49.5t46.5 -15.5z" />
    <glyph glyph-name="b" unicode="b" horiz-adv-x="506" 
d="M293 -8q-47 0 -84.5 23.5t-53.5 54.5v-35q0 -13 -14 -24t-34 -11q-22 0 -36.5 11t-14.5 24v687q0 15 14.5 24.5t36.5 9.5q23 0 38.5 -9.5t15.5 -24.5v-318q16 29 49 52.5t80 23.5q49 0 89.5 -26.5t65 -71t24.5 -99.5v-92q0 -52 -24.5 -97.5t-64.5 -73.5t-87 -28zM263 85
q27 0 50 15t37 40t14 51v92q0 26 -14 50t-37 39t-51 15q-25 0 -48 -12.5t-38 -35.5t-15 -56v-115q0 -12 13.5 -31.5t36.5 -35.5t52 -16z" />
    <glyph glyph-name="c" unicode="c" horiz-adv-x="425" 
d="M247 -8q-72 0 -118.5 26t-68.5 71t-22 102v90q0 56 22 101.5t68 71.5t117 26q46 0 80.5 -11t54 -27.5t19.5 -34.5q0 -9 -5.5 -21.5t-15 -21t-22.5 -8.5q-10 0 -21.5 8t-30.5 15.5t-51 7.5q-56 0 -83 -28t-27 -78v-90q0 -50 27 -78t84 -28q33 0 52 8.5t30.5 16.5t22.5 8
q14 0 24.5 -8t16 -20t5.5 -22q0 -17 -20.5 -35t-56 -29.5t-81.5 -11.5z" />
    <glyph glyph-name="d" unicode="d" horiz-adv-x="506" 
d="M213 -8q-47 0 -87 28t-64.5 73.5t-24.5 97.5v92q0 55 24.5 99.5t64.5 71t89 26.5q48 0 81 -23.5t49 -52.5v318q0 15 16 24.5t38 9.5t36.5 -9.5t14.5 -24.5v-687q0 -13 -14.5 -24t-36.5 -11q-19 0 -33.5 11t-14.5 24v35q-15 -31 -53 -54.5t-85 -23.5zM243 85q29 0 52 16
t36.5 35.5t13.5 31.5v115q0 33 -15 56t-38 35.5t-48 12.5q-28 0 -51.5 -15t-37 -39t-13.5 -50v-92q0 -26 13.5 -51t36.5 -40t51 -15z" />
    <glyph glyph-name="e" unicode="e" horiz-adv-x="475" 
d="M269 -8q-68 0 -120 25t-82 69.5t-30 104.5v95q0 53 28.5 97t75.5 70.5t104 26.5q54 0 99 -23.5t72.5 -65.5t27.5 -96q0 -42 -13 -60t-34 -22t-44 -4h-211v-23q0 -50 36.5 -79.5t93.5 -29.5q35 0 57 10t37 19t28 9t22 -8t14 -19t5 -20q0 -15 -20.5 -33t-57.5 -30.5
t-88 -12.5zM142 274h166q22 0 29.5 6t7.5 24q0 26 -13 48.5t-36 35t-52 12.5q-28 0 -51 -12t-37 -33t-14 -49v-32z" />
    <glyph glyph-name="f" unicode="f" horiz-adv-x="327" 
d="M107 0q-22 0 -36.5 9.5t-14.5 24.5v531q0 54 24 97.5t64 68.5t88 25h47q20 0 30.5 -14t10.5 -31q0 -18 -10.5 -31.5t-30.5 -13.5h-27q-26 0 -46.5 -12t-32.5 -32.5t-12 -46.5v-101h129q15 0 22.5 -12t7.5 -27t-7.5 -27t-22.5 -12h-129v-362q0 -15 -16 -24.5t-38 -9.5z
" />
    <glyph glyph-name="g" unicode="g" horiz-adv-x="465" 
d="M234 -225q-58 0 -107 16.5t-78 47.5t-29 74q0 40 23 66.5t54 40.5q-20 9 -33 24t-13 42q0 28 14 45t36 31q-28 22 -43.5 54.5t-15.5 71.5v28q0 48 23 85t65.5 58t97.5 21q34 0 63.5 -9t52.5 -25q16 37 32.5 52t31.5 15q21 0 32 -12t11 -24q0 -8 -4.5 -14.5t-12.5 -10.5
q-10 -5 -23.5 -13.5t-26.5 -26.5q17 -19 25 -44t8 -52v-28q0 -47 -24 -85t-67 -59.5t-98 -21.5q-39 0 -69 12q-8 -5 -13.5 -11.5t-5.5 -16.5q0 -18 22 -26t56.5 -12t73.5 -10t73.5 -19.5t56.5 -40t22 -72.5q0 -52 -29 -85.5t-76.5 -49.5t-104.5 -16zM232 -155
q49 0 79.5 21.5t30.5 56.5q0 25 -15 39t-39 21t-50.5 10t-50.5 6q-28 -10 -47.5 -28.5t-19.5 -46.5q0 -37 31.5 -58t80.5 -21zM230 189q40 0 62.5 28t22.5 71v28q0 41 -22.5 69t-63.5 28t-63 -28t-22 -69v-27q0 -42 22 -71t64 -29z" />
    <glyph glyph-name="h" unicode="h" horiz-adv-x="513" 
d="M108 0q-23 0 -37.5 11t-14.5 24v687q0 15 14.5 24.5t37.5 9.5q22 0 37.5 -9.5t15.5 -24.5v-318q15 29 47.5 52.5t80.5 23.5q47 0 86.5 -26.5t63.5 -71t24 -99.5v-248q0 -17 -16.5 -26t-36.5 -9q-18 0 -35 9t-17 26v248q0 26 -14 50t-36.5 39t-50.5 15q-24 0 -46 -12.5
t-36 -35.5t-14 -56v-248q0 -13 -15.5 -24t-37.5 -11z" />
    <glyph glyph-name="i" unicode="i" horiz-adv-x="214" 
d="M107 593q-25 0 -43 17t-18 38q0 23 18 39t43 16t42.5 -16t17.5 -39q0 -21 -17.5 -38t-42.5 -17zM107 0q-23 0 -37.5 11t-14.5 24v405q0 15 14.5 24.5t37.5 9.5q22 0 37.5 -9.5t15.5 -24.5v-405q0 -13 -15.5 -24t-37.5 -11z" />
    <glyph glyph-name="j" unicode="j" horiz-adv-x="215" 
d="M16 -225q-31 0 -42.5 14t-11.5 30q0 21 12 33.5t29 12.5q23 0 34.5 12.5t14.5 35t3 51.5v476q0 15 14.5 24.5t36.5 9.5q23 0 38.5 -9.5t15.5 -24.5v-476q0 -55 -15.5 -98t-47.5 -67t-81 -24zM107 593q-25 0 -43 17t-18 38q0 23 18 39t43 16t42.5 -16t17.5 -39
q0 -21 -17.5 -38t-42.5 -17z" />
    <glyph glyph-name="k" unicode="k" horiz-adv-x="479" 
d="M107 0q-22 0 -36.5 11t-14.5 24v687q0 15 14.5 24.5t36.5 9.5q23 0 38.5 -9.5t15.5 -24.5v-445l209 192q9 9 22 9q12 0 23.5 -7.5t19.5 -19t8 -23.5q0 -6 -2 -11.5t-7 -10.5l-129 -115l157 -226q6 -10 6 -18q0 -13 -9.5 -25t-23 -20t-26.5 -8q-18 0 -28 15l-147 217
l-73 -66v-125q0 -13 -15.5 -24t-38.5 -11z" />
    <glyph glyph-name="l" unicode="l" horiz-adv-x="232" 
d="M116 0q-23 0 -37.5 11t-14.5 24v687q0 15 14.5 24.5t37.5 9.5q22 0 37.5 -9.5t15.5 -24.5v-687q0 -13 -15.5 -24t-37.5 -11z" />
    <glyph glyph-name="m" unicode="m" horiz-adv-x="794" 
d="M107 0q-23 0 -37.5 11t-14.5 24v405q0 15 14.5 24.5t37.5 9.5q19 0 33 -9.5t14 -24.5v-36q17 29 50 52.5t83 23.5q45 0 79.5 -28t51.5 -72q26 51 67 75.5t84 24.5q45 0 84.5 -23t64.5 -67t25 -107v-248q0 -13 -15.5 -24t-37.5 -11q-21 0 -36.5 11t-15.5 24v248
q0 34 -13.5 57.5t-35 35.5t-44.5 12q-24 0 -45 -12.5t-35 -35t-14 -55.5v-251q0 -18 -16.5 -26t-36.5 -8q-18 0 -35 8t-17 26v250q0 32 -13 55t-34 35.5t-46 12.5q-23 0 -44.5 -12t-35 -35t-13.5 -57v-248q0 -13 -15.5 -24t-37.5 -11z" />
    <glyph glyph-name="n" unicode="n" horiz-adv-x="512" 
d="M107 0q-23 0 -37.5 11t-14.5 24v405q0 15 14.5 24.5t37.5 9.5q19 0 33 -9.5t14 -24.5v-36q15 29 49.5 52.5t84.5 23.5q47 0 86.5 -26.5t63.5 -71t24 -99.5v-248q0 -17 -16.5 -26t-36.5 -9q-18 0 -35 9t-17 26v248q0 26 -13.5 50t-36.5 39t-51 15q-24 0 -46 -12.5
t-36 -35.5t-14 -56v-248q0 -13 -15.5 -24t-37.5 -11z" />
    <glyph glyph-name="o" unicode="o" horiz-adv-x="486" 
d="M242 -8q-54 0 -101 28t-75.5 73.5t-28.5 97.5v92q0 53 27.5 98t75 72t103.5 27t103 -26.5t75.5 -71t28.5 -99.5v-92q0 -51 -28.5 -97t-76 -74t-103.5 -28zM243 85q28 0 51 15t37 39.5t14 51.5v92q0 26 -14 50t-37 39t-51 15q-29 0 -51.5 -15t-36 -39t-13.5 -50v-92
q0 -27 13.5 -51.5t36.5 -39.5t51 -15z" />
    <glyph glyph-name="p" unicode="p" horiz-adv-x="506" 
d="M107 -225q-22 0 -36.5 11t-14.5 24v630q0 15 14.5 24.5t35.5 9.5t35 -9.5t14 -24.5v-36q17 29 51.5 52.5t82.5 23.5q50 0 91 -26.5t65 -71t24 -99.5v-92q0 -52 -24.5 -97.5t-64.5 -73.5t-87 -28q-45 0 -81 23.5t-51 54.5v-260q0 -13 -15.5 -24t-38.5 -11zM262 85
q27 0 50 15t37.5 40t14.5 51v92q0 26 -14 50t-37.5 39t-52.5 15q-24 0 -47 -12.5t-37.5 -35.5t-14.5 -56v-115q0 -12 13 -31.5t36 -35.5t52 -16z" />
    <glyph glyph-name="q" unicode="q" horiz-adv-x="506" 
d="M399 -225q-22 0 -38 11t-16 24v260q-14 -31 -50.5 -54.5t-81.5 -23.5q-47 0 -87 28t-64.5 73.5t-24.5 97.5v92q0 55 24 99.5t65 71t91 26.5q48 0 83 -23.5t51 -52.5v36q0 15 14 24.5t35 9.5t35.5 -9.5t14.5 -24.5v-630q0 -13 -14.5 -24t-36.5 -11zM244 85q30 0 52.5 16
t35.5 35.5t13 31.5v115q0 33 -14.5 56t-37.5 35.5t-47 12.5q-29 0 -52.5 -15t-37.5 -39t-14 -50v-92q0 -26 14.5 -51t37.5 -40t50 -15z" />
    <glyph glyph-name="r" unicode="r" horiz-adv-x="358" 
d="M106 0q-22 0 -36.5 11t-14.5 24v405q0 15 14.5 24.5t36.5 9.5q20 0 34 -9.5t14 -24.5v-44q11 21 29.5 40t43.5 31.5t54 12.5h32q16 0 28 -13.5t12 -32.5t-12 -33t-28 -14h-32q-30 0 -58 -18t-45.5 -50.5t-17.5 -78.5v-205q0 -13 -15.5 -24t-38.5 -11z" />
    <glyph glyph-name="s" unicode="s" horiz-adv-x="406" 
d="M200 -8q-49 0 -88 12t-61.5 30.5t-22.5 37.5q0 9 4.5 20t13 19t18.5 8q13 0 27.5 -11.5t38.5 -23t67 -11.5q50 0 67.5 17t17.5 37q0 26 -17.5 40.5t-45 23.5t-58.5 17.5t-58.5 22.5t-45 39t-17.5 66q0 34 17 67.5t54.5 55t100.5 21.5q38 0 72 -8t56 -21.5t22 -29.5
q0 -7 -5 -19.5t-13.5 -22t-21.5 -9.5q-10 0 -25 7.5t-35 14.5t-49 7t-46.5 -9.5t-25.5 -22.5t-8 -26q0 -22 17 -34t45 -20t59 -16.5t58.5 -24.5t45 -43t17.5 -72q0 -63 -45.5 -101t-129.5 -38z" />
    <glyph glyph-name="t" unicode="t" horiz-adv-x="326" 
d="M228 0q-85 0 -130 37.5t-45 118.5v501q0 15 16.5 24.5t35.5 9.5t36 -9.5t17 -24.5v-183h122q14 0 21.5 -12t7.5 -27t-7.5 -27t-21.5 -12h-122v-240q0 -36 15.5 -51t54.5 -15h34q23 0 34.5 -13.5t11.5 -31.5q0 -17 -11.5 -31t-34.5 -14h-34z" />
    <glyph glyph-name="u" unicode="u" horiz-adv-x="513" 
d="M257 -8q-56 0 -103.5 27.5t-75.5 73t-28 96.5v250q0 13 15.5 24t37.5 11q21 0 36.5 -11t15.5 -24v-250q0 -26 13.5 -50t37 -39t51.5 -15t51 15t36.5 39t13.5 50v251q0 14 16.5 24t36.5 10q23 0 37.5 -10t14.5 -24v-251q0 -53 -28 -98t-75 -72t-103 -27z" />
    <glyph glyph-name="v" unicode="v" horiz-adv-x="457" 
d="M229 -10q-17 0 -30.5 5.5t-17.5 15.5l-168 405q-1 3 -2.5 8t-1.5 9q0 13 11.5 23t27 16t29.5 6q10 0 19.5 -4.5t12.5 -14.5l120 -316l118 314q4 10 12 15.5t20 5.5q11 0 27.5 -6t29 -16.5t12.5 -22.5q0 -5 -1 -9t-3 -8l-167 -405q-5 -10 -18.5 -15.5t-29.5 -5.5z" />
    <glyph glyph-name="w" unicode="w" horiz-adv-x="682" 
d="M210 -10q-14 0 -25 5t-16 18l-155 404q-2 5 -3.5 9.5t-1.5 7.5q0 13 11 22.5t26.5 15.5t29.5 6q11 0 20 -4.5t12 -14.5l111 -311l85 276q5 15 15 19t22 4q13 0 23 -4t15 -19l83 -278l112 313q6 19 31 19q14 0 29.5 -5.5t26.5 -15.5t11 -24q0 -3 -1 -8t-3 -8l-155 -406
q-4 -12 -15.5 -16.5t-25.5 -4.5q-16 0 -27.5 5t-15.5 15l-88 258l-86 -255q-4 -12 -16.5 -17.5t-28.5 -5.5z" />
    <glyph glyph-name="x" unicode="x" horiz-adv-x="446" 
d="M88 -8q-12 0 -27.5 7.5t-27 19.5t-11.5 25q0 10 6 19l124 178l-117 168q-3 3 -5 8t-2 10q0 13 11.5 25t27.5 20t29 8q5 0 13 -2t13 -10l101 -160l102 159q5 8 12.5 10.5t14.5 2.5q12 0 28 -7.5t27.5 -20t11.5 -25.5q0 -8 -7 -18l-118 -169l124 -177q3 -3 5 -8t2 -11
q0 -11 -11 -23.5t-26.5 -20.5t-29.5 -8q-7 0 -14.5 2.5t-11.5 9.5l-109 165l-108 -165q-4 -6 -12.5 -9t-14.5 -3z" />
    <glyph glyph-name="y" unicode="y" horiz-adv-x="454" 
d="M57 -225q-20 0 -34 8.5t-14 36.5q0 18 6 31.5t22 13.5q19 0 41.5 9.5t44 30t37 51.5t21.5 73l-169 388q-4 7 -4 14q0 13 11.5 24.5t27.5 18.5t30 7q10 0 19.5 -4.5t12.5 -14.5l126 -325l109 325q3 10 12 14.5t18 4.5q12 0 28.5 -7t29 -18.5t12.5 -26.5q0 -8 -3 -12
l-150 -391q-16 -43 -33 -87.5t-41.5 -81.5t-63 -59.5t-96.5 -22.5z" />
    <glyph glyph-name="z" unicode="z" horiz-adv-x="422" 
d="M59 0q-20 0 -29 12t-9 26q0 12 5.5 23t12.5 19l214 307h-190q-14 0 -23.5 13t-9.5 31t9 30.5t24 12.5h290q14 0 24.5 -9t10.5 -28q0 -22 -16 -43l-215 -307h213q13 0 23 -12.5t10 -31.5q0 -17 -9 -30t-24 -13h-311z" />
    <glyph glyph-name="braceleft" unicode="{" horiz-adv-x="340" 
d="M266 -20q-51 0 -96.5 20t-74 55.5t-28.5 82.5q0 10 1.5 29.5t4.5 43t5.5 46.5t4 40t1.5 23q0 15 -9 19.5t-21 7t-21 10.5t-9 29q0 20 9 28t21 10.5t21 7t9 17.5q0 8 -2.5 27.5t-6 43t-6 45.5t-2.5 34q0 33 16.5 63.5t45 54t64.5 37.5t74 14q33 0 45.5 -15t12.5 -32
q0 -15 -9 -29.5t-25 -14.5q-26 0 -53.5 -10.5t-46 -31t-18.5 -50.5q0 -10 2.5 -30.5t6 -44.5t6 -44t2.5 -28q0 -20 -13 -35.5t-22 -18.5q10 -3 22.5 -18t12.5 -35q0 -9 -2.5 -34.5t-6 -55.5t-6 -56t-2.5 -36q0 -24 12.5 -39t31.5 -23.5t39 -12t35 -3.5q14 0 21 -7.5t10 -18
t3 -19.5q0 -23 -15.5 -34.5t-43.5 -11.5z" />
    <glyph glyph-name="bar" unicode="|" horiz-adv-x="225" 
d="M112 -21q-22 0 -37 11t-15 24v720q0 15 15 24.5t37 9.5t37.5 -9.5t15.5 -24.5v-720q0 -13 -15.5 -24t-37.5 -11z" />
    <glyph glyph-name="braceright" unicode="}" horiz-adv-x="340" 
d="M74 -20q-27 0 -43 11.5t-16 34.5q0 9 3 19.5t10.5 18t21.5 7.5t34 3.5t39.5 12t32 23.5t12.5 39q0 10 -3 36t-6 56t-6 55.5t-3 34.5q0 20 13 35t23 18q-10 3 -23 18.5t-13 35.5q0 8 3 28t6 44t6 44.5t3 30.5q0 30 -18.5 50.5t-46 31t-53.5 10.5q-17 0 -26 14.5t-9 29.5
q0 17 12.5 32t45.5 15q38 0 74.5 -14t64.5 -37.5t45 -54t17 -63.5q0 -12 -3 -34t-6 -45.5t-6 -43t-3 -27.5q0 -13 9 -17.5t21 -7t21 -10.5t9 -28q0 -21 -9 -29t-21 -10.5t-21 -7t-9 -19.5q0 -6 2 -23t5 -40t5 -46.5t4 -43t2 -29.5q0 -47 -29 -82.5t-74 -55.5t-97 -20z" />
    <glyph glyph-name="asciitilde" unicode="~" horiz-adv-x="406" 
d="M284 205q-31 0 -52.5 8t-41 15.5t-45.5 7.5q-21 0 -35 -6.5t-24 -13.5t-20 -7t-16 7t-9 15.5t-3 13.5q0 20 10 32t24 19.5t29 10t24 2.5q29 0 49.5 -7.5t41.5 -15.5t47 -8q22 0 35.5 6.5t23 13t18.5 6.5q11 0 17 -7t8.5 -15t2.5 -13q0 -21 -9.5 -33t-23.5 -19t-28 -9.5
t-23 -2.5z" />
    <glyph glyph-name="uni00A0" unicode="&#xa0;" horiz-adv-x="200" 
 />
    <glyph glyph-name="exclamdown" unicode="&#xa1;" horiz-adv-x="214" 
d="M106 -6q-21 0 -36.5 12.5t-15.5 35.5q0 73 3 154.5t6 162.5t3 153q0 17 14 24.5t26 7.5q17 0 29.5 -7.5t12.5 -24.5q0 -72 3 -153t6 -162.5t3 -154.5q0 -23 -15.5 -35.5t-38.5 -12.5zM106 618q-24 0 -41.5 18t-17.5 42t17.5 42t41.5 18q25 0 42.5 -18t17.5 -42t-17.5 -42
t-42.5 -18z" />
    <glyph glyph-name="cent" unicode="&#xa2;" horiz-adv-x="430" 
d="M235 39q-13 0 -22.5 10t-9.5 22v91q-89 10 -130.5 65t-41.5 132v19q0 52 18 94t56 69.5t98 34.5v88q0 14 9.5 22.5t22.5 8.5t23.5 -8.5t10.5 -22.5v-89q35 -3 63.5 -13.5t45 -25t16.5 -31.5q0 -10 -6 -22t-15.5 -19.5t-21.5 -7.5q-9 0 -18.5 6.5t-24 14t-39.5 9.5v-234
q25 3 39.5 11t24 14.5t18.5 6.5q21 0 33.5 -16t12.5 -33q0 -16 -17.5 -31.5t-46.5 -26.5t-64 -15v-91q0 -12 -10.5 -22t-23.5 -10zM203 252v234q-41 -9 -60 -37t-19 -71v-19q0 -42 19 -70t60 -37z" />
    <glyph glyph-name="sterling" unicode="&#xa3;" horiz-adv-x="522" 
d="M56 0q-17 0 -25.5 15t-8.5 32q0 18 8.5 32.5t25.5 14.5h55l38 272h-63q-14 0 -21.5 12t-7.5 28q0 15 7.5 27t21.5 12h74l18 119q8 58 43 104.5t87.5 73t110.5 26.5h30q18 0 27.5 -14.5t9.5 -32.5q0 -17 -9.5 -31.5t-27.5 -14.5h-35q-37 0 -65 -15.5t-45 -40.5t-21 -55
l-18 -119h131q14 0 21.5 -12.5t7.5 -26.5q0 -15 -7.5 -27.5t-21.5 -12.5h-142l-39 -272h238q17 0 25 -14.5t8 -32.5q0 -17 -8 -32t-25 -15h-397z" />
    <glyph glyph-name="currency" unicode="&#xa4;" horiz-adv-x="460" 
d="M231 290q-31 0 -60 11.5t-52 31.5l-28 -26q-5 -5 -13 -5q-10 0 -17.5 8t-7.5 17q0 7 5 13l30 28q-16 22 -25 48.5t-9 55.5q0 28 9 55t24 49l-26 25q-5 6 -5 13q0 10 7.5 17.5t17.5 7.5q8 0 14 -5l24 -24q23 20 51.5 31t60.5 11q30 0 58 -10.5t51 -28.5l26 24q6 5 14 5
q9 0 17 -8t8 -17q0 -7 -6 -13l-27 -26q17 -22 27 -49t10 -56q0 -30 -10 -57t-27 -50l27 -26q6 -7 6 -13q0 -9 -8 -17t-17 -8q-8 0 -14 5l-26 24q-23 -19 -51 -30t-58 -11zM231 353q32 0 58 17t41.5 44t15.5 57q0 31 -15 57.5t-41.5 43.5t-58.5 17t-58 -16.5t-41.5 -43.5
t-15.5 -57q0 -31 15.5 -58t41.5 -44t58 -17z" />
    <glyph glyph-name="yen" unicode="&#xa5;" horiz-adv-x="542" 
d="M270 0q-20 0 -36.5 9t-16.5 26v131h-99q-15 0 -25 10.5t-10 26.5q0 17 10 28t25 11h99v68h-99q-15 0 -25 10.5t-10 26.5q0 17 10 28.5t25 11.5h75l-166 290q-2 3 -3 7t-1 7q0 11 9.5 21t24 16.5t28.5 6.5q12 0 19 -7t13 -18l153 -291l156 291q6 11 13.5 18t18.5 7
q14 0 28 -6.5t23.5 -16.5t9.5 -21q0 -8 -3 -14l-170 -290h79q14 0 25 -11t11 -28q0 -16 -11 -27t-25 -11h-103v-68h103q14 0 25 -11t11 -27q0 -17 -11 -27.5t-25 -10.5h-103v-131q0 -17 -16 -26t-36 -9z" />
    <glyph glyph-name="brokenbar" unicode="&#xa6;" horiz-adv-x="226" 
d="M113 440q-23 0 -38 11t-15 24v259q0 15 15 24.5t38 9.5q21 0 37 -9.5t16 -24.5v-259q0 -13 -16 -24t-37 -11zM113 -21q-23 0 -38 11t-15 24v258q0 15 15 25t38 10q21 0 37 -10t16 -25v-258q0 -13 -16 -24t-37 -11z" />
    <glyph glyph-name="section" unicode="&#xa7;" horiz-adv-x="475" 
d="M234 -68q-61 0 -104 24.5t-64.5 62.5t-21.5 80q0 25 12.5 34t33.5 9q26 0 35.5 -9t9.5 -22t4 -28.5t13 -29.5t27 -23t48 -9q50 0 74 25t24 65q0 30 -15 48.5t-39.5 31.5t-53.5 24t-58 25.5t-53.5 36t-39.5 55t-15 84.5v114q0 61 18 100t46 61t60.5 31t62.5 9
q58 0 97 -23.5t58 -60.5t19 -80q0 -27 -11.5 -35.5t-29.5 -8.5q-25 0 -35.5 10.5t-10.5 27.5q0 16 -6.5 35.5t-24.5 33.5t-52 14q-26 0 -47.5 -10.5t-33.5 -31t-12 -52.5q0 -30 15 -48.5t40.5 -31.5t56 -24.5t60 -25.5t55 -35.5t40.5 -55.5t15 -84v-113q0 -57 -17 -95.5
t-46 -61.5t-64 -33t-70 -10zM343 232v24q0 36 -15 58t-39 35.5t-51.5 23t-53 20.5t-44.5 29v-24q0 -36 15.5 -58t39 -35.5t51.5 -23t53.5 -20.5t43.5 -29z" />
    <glyph glyph-name="dieresis" unicode="&#xa8;" horiz-adv-x="230" 
d="M185 583q-19 0 -32 14t-13 33t13 32.5t32 13.5t32 -13.5t13 -32.5t-13 -33t-32 -14zM46 583q-19 0 -32.5 14t-13.5 33t13.5 32.5t32.5 13.5t31.5 -13.5t12.5 -32.5t-12.5 -33t-31.5 -14z" />
    <glyph glyph-name="copyright" unicode="&#xa9;" horiz-adv-x="700" 
d="M347 35q-53 0 -106.5 20t-98.5 60t-72 101t-27 142q0 84 28.5 145.5t74.5 101.5t100.5 60t106.5 20q53 0 106.5 -20t98.5 -60t72 -101t27 -142q0 -84 -28.5 -145.5t-74.5 -101.5t-100.5 -60t-106.5 -20zM347 90q75 0 132.5 34.5t90 96t32.5 141.5q0 78 -31 138.5
t-86.5 95t-131.5 34.5q-74 0 -132 -34.5t-90.5 -95.5t-32.5 -142q0 -77 31 -138t87 -95.5t131 -34.5zM351 170q-47 0 -80.5 28t-33.5 96v146q0 68 34 96t80 28q52 0 84.5 -27.5t32.5 -74.5q0 -19 -7.5 -25.5t-23.5 -6.5q-13 0 -22 5t-10 16q0 9 -3 22.5t-14 24t-35 10.5
q-53 0 -53 -68v-146q0 -68 54 -68q23 0 33.5 10.5t14 24.5t3.5 26q1 12 10 16.5t22 4.5q16 0 23.5 -7t7.5 -26q0 -47 -32.5 -76t-84.5 -29z" />
    <glyph glyph-name="ordfeminine" unicode="&#xaa;" horiz-adv-x="325" 
d="M135 435q-6 -1 -14 -1.5t-15 -0.5q-31 3 -54 23.5t-23 62.5q0 55 42.5 74.5t110.5 19.5h28v11q0 24 -14 46t-49 22q-24 0 -37.5 -5t-21 -10t-14.5 -5q-12 0 -19 12t-7 25q0 12 16 22t39 16t45 6q50 0 79.5 -18.5t42.5 -47.5t13 -63v-162q0 -10 -10 -17.5t-26 -7.5
q-14 0 -23.5 7.5t-9.5 17.5v21q-14 -16 -33.5 -30t-45.5 -18zM143 488q15 0 30.5 9t26 24t10.5 31v21h-24q-21 0 -40.5 -3.5t-31.5 -13t-12 -28.5q0 -21 11.5 -30.5t29.5 -9.5z" />
    <glyph glyph-name="guillemotleft" unicode="&#xab;" horiz-adv-x="464" 
d="M364 74q-23 0 -31 15l-79 147q-8 15 -13 23t-5 17q0 11 5 19.5t13 22.5l79 148q8 14 32 14q17 0 31.5 -8.5t23 -20.5t8.5 -23q0 -6 -3 -12l-74 -139l74 -139q3 -5 3 -11q0 -11 -8.5 -23.5t-23.5 -21t-32 -8.5zM157 74q-23 0 -31 15l-79 147q-7 15 -12.5 23t-5.5 17
q0 11 5.5 19.5t12.5 22.5l79 148q8 14 32 14q17 0 31.5 -8.5t23.5 -20.5t9 -23q0 -6 -3 -12l-75 -139l75 -139q3 -5 3 -11q0 -11 -9 -23.5t-24 -21t-32 -8.5z" />
    <glyph glyph-name="logicalnot" unicode="&#xac;" horiz-adv-x="494" 
d="M386 163q-23 0 -37.5 11t-14.5 24v98h-259q-15 0 -24.5 12.5t-9.5 31.5t9.5 32t24.5 13h328q14 0 25 -13t11 -32v-142q0 -13 -15.5 -24t-37.5 -11z" />
    <glyph glyph-name="uni00AD" unicode="&#xad;" horiz-adv-x="467" 
d="M73 196q-15 0 -24.5 12.5t-9.5 31.5t9.5 32t24.5 13h320q14 0 25 -13t11 -32t-11 -31.5t-25 -12.5h-320z" />
    <glyph glyph-name="registered" unicode="&#xae;" horiz-adv-x="700" 
d="M347 35q-53 0 -106.5 20t-98.5 60t-72 101t-27 142q0 84 28.5 145.5t74.5 101.5t100.5 60t106.5 20q53 0 106.5 -20t98.5 -60t72 -101t27 -142q0 -84 -28.5 -145.5t-74.5 -101.5t-100.5 -60t-106.5 -20zM347 90q75 0 132.5 34.5t90 96t32.5 141.5q0 78 -31 138.5
t-86.5 95t-131.5 34.5q-74 0 -132 -34.5t-90.5 -95.5t-32.5 -142q0 -77 31 -138t87 -95.5t131 -34.5zM441 176q-7 0 -12 4.5t-9 12.5l-67 141h-46v-136q0 -10 -8.5 -15.5t-20.5 -5.5q-11 0 -20.5 5t-9.5 16v336q0 7 5.5 13.5t14.5 6.5h93q31 0 56.5 -10t41.5 -33t16 -64
q0 -45 -19 -69.5t-47 -33.5l63 -130q1 -3 1 -7q0 -12 -10.5 -21.5t-21.5 -9.5zM307 385h55q25 0 39.5 13.5t14.5 42.5q0 33 -14.5 46.5t-39.5 13.5h-55v-116z" />
    <glyph glyph-name="uni0304" unicode="&#xaf;" 
d="M34 620q-15 0 -24.5 10t-9.5 25q0 16 9.5 26.5t24.5 10.5h209q13 0 24 -10.5t11 -26.5q0 -15 -11 -25t-24 -10h-209z" />
    <glyph glyph-name="degree" unicode="&#xb0;" horiz-adv-x="406" 
d="M202 406q-47 0 -87.5 25.5t-65 67t-24.5 89.5t24 89t64.5 66t88.5 25t88.5 -24.5t65 -65t24.5 -89.5q0 -48 -24.5 -90t-65 -67.5t-88.5 -25.5zM202 469q32 0 58.5 17t42 44t15.5 57q0 31 -15.5 57.5t-41.5 43.5t-58 17q-33 0 -59 -17t-41 -43.5t-15 -56.5q0 -31 15 -58
t41.5 -44t57.5 -17z" />
    <glyph glyph-name="plusminus" unicode="&#xb1;" horiz-adv-x="475" 
d="M238 174q-19 0 -32 9.5t-13 24.5v111h-116q-15 0 -25 12t-10 31q0 20 10 32.5t25 12.5h116v110q0 13 13 24t32 11q20 0 32 -11t12 -24v-110h115q13 0 24 -12.5t11 -32.5q0 -19 -11 -31t-24 -12h-115v-111q0 -15 -12 -24.5t-32 -9.5zM77 41q-15 0 -25 12.5t-10 31.5t10 32
t25 13h320q13 0 24 -13t11 -32t-11 -31.5t-24 -12.5h-320z" />
    <glyph glyph-name="uni00B2" unicode="&#xb2;" horiz-adv-x="315" 
d="M59 340q-10 0 -21 6.5t-11 16.5v52q0 26 19 47t47 40.5t56 38t47 38t19 41.5q0 15 -13.5 30t-43.5 15q-22 0 -37 -10.5t-15 -34.5q0 -10 -10.5 -18.5t-28.5 -8.5q-14 0 -23.5 8t-9.5 30q0 32 17.5 54t46 34t60.5 12q34 0 63.5 -13t47.5 -37.5t18 -58.5t-18.5 -60
t-46 -45.5t-55.5 -36t-46.5 -31.5t-18.5 -31v-14h164q9 0 16 -9.5t7 -22.5q0 -12 -7 -22t-16 -10h-207z" />
    <glyph glyph-name="uni00B3" unicode="&#xb3;" horiz-adv-x="323" 
d="M155 337q-46 0 -75.5 15.5t-43 38t-13.5 44.5q0 17 8 22.5t26 5.5q23 0 30 -6t7 -19q0 -11 8 -19.5t22 -13t33 -4.5q34 0 49.5 13t15.5 42v10q0 30 -18.5 39.5t-47.5 9.5q-12 0 -17.5 9t-5.5 19q0 11 5.5 19.5t17.5 9.5q23 1 39 9.5t16 41.5q0 26 -14 36t-39 10
q-20 0 -31.5 -4.5t-17 -12t-5.5 -18.5q0 -12 -7 -19.5t-27 -7.5q-25 0 -31.5 6.5t-6.5 23.5q0 20 11.5 41.5t39 37t75.5 15.5q54 0 88 -21t34 -75q0 -31 -12 -55t-34 -34q27 -9 43.5 -28t16.5 -52v-10q0 -43 -19 -69.5t-50 -38t-70 -11.5z" />
    <glyph glyph-name="acute" unicode="&#xb4;" horiz-adv-x="184" 
d="M35 577q-14 0 -24.5 13.5t-10.5 27.5q0 18 15 26l124 63q6 2 11 2q15 0 24.5 -13.5t9.5 -27.5q0 -19 -16 -27l-121 -61l-6 -2t-6 -1z" />
    <glyph glyph-name="uni03BC" unicode="&#xb5;" horiz-adv-x="507" 
d="M113 -225q-22 0 -36.5 10.5t-14.5 24.5v629q0 13 15.5 24t36.5 11q22 0 37.5 -11t15.5 -24v-260q0 -15 8 -31.5t23 -30.5t33 -23t38 -9q27 0 49.5 15t36 39t13.5 50v250q0 15 16 25t36 10q23 0 38 -10t15 -25v-250q0 -53 -27.5 -98t-74 -72t-102.5 -27q-36 0 -65.5 14.5
t-48.5 33.5v-230q0 -14 -12 -24.5t-30 -10.5z" />
    <glyph glyph-name="paragraph" unicode="&#xb6;" horiz-adv-x="547" 
d="M291 0q-14 0 -25 9t-11 26v271h-30q-55 0 -99.5 20.5t-70.5 66t-26 120.5v12q0 75 26 120t70.5 65.5t99.5 20.5h217q14 0 25 -9t11 -26v-662q0 -18 -11 -26t-25 -8q-13 0 -24 8t-11 26v644h-81v-643q0 -17 -11 -26t-24 -9z" />
    <glyph glyph-name="periodcentered" unicode="&#xb7;" horiz-adv-x="198" 
d="M99 243q-26 0 -44 17.5t-18 39.5q0 23 18 39.5t44 16.5t44 -16.5t18 -39.5q0 -22 -18 -39.5t-44 -17.5z" />
    <glyph glyph-name="cedilla" unicode="&#xb8;" horiz-adv-x="181" 
d="M82 -214q-15 0 -34.5 3t-33.5 9.5t-14 15.5q0 4 2.5 11.5t7 14t10.5 6.5q7 0 20 -7t37 -7q25 0 37.5 10t12.5 26q0 17 -13.5 26.5t-40.5 11.5l-48 5l26 98h51l-18 -64q51 -1 74 -23t23 -52q0 -17 -9.5 -37t-31 -33.5t-58.5 -13.5z" />
    <glyph glyph-name="uni00B9" unicode="&#xb9;" horiz-adv-x="183" 
d="M103 340q-14 0 -25 5.5t-11 17.5v282l-19 -15q-7 -4 -14 -4q-10 0 -17 9t-7 19q0 8 3.5 15t10.5 11l67 47q7 5 16 5q11 0 21.5 -6.5t10.5 -16.5v-346q0 -12 -11 -17.5t-25 -5.5z" />
    <glyph glyph-name="ordmasculine" unicode="&#xba;" horiz-adv-x="337" 
d="M168 432q-37 0 -68 18.5t-50 48.5t-19 64v59q0 35 18.5 64.5t50 48t68.5 18.5t68.5 -18t50.5 -47.5t19 -65.5v-59q0 -34 -19 -64t-50.5 -48.5t-68.5 -18.5zM168 497q27 0 45.5 20.5t18.5 46.5v58q0 25 -18.5 45t-45.5 20t-45.5 -20t-18.5 -45v-58q0 -26 18.5 -46.5
t45.5 -20.5z" />
    <glyph glyph-name="guillemotright" unicode="&#xbb;" horiz-adv-x="464" 
d="M306 74q-16 0 -31 8.5t-24 21t-9 23.5q0 6 3 11l74 139l-74 139q-3 6 -3 12q0 11 8.5 23t23.5 20.5t32 8.5q24 0 31 -14l79 -148q8 -14 13.5 -22.5t5.5 -19.5q0 -9 -5.5 -17t-13.5 -23l-79 -147q-7 -15 -31 -15zM100 74q-17 0 -32 8.5t-24 21t-9 23.5q0 6 3 11l75 139
l-75 139q-3 6 -3 12q0 11 9 23t23.5 20.5t31.5 8.5q25 0 32 -14l79 -148q7 -14 12.5 -22.5t5.5 -19.5q0 -9 -5.5 -17t-12.5 -23l-79 -147q-8 -15 -31 -15z" />
    <glyph glyph-name="onequarter" unicode="&#xbc;" horiz-adv-x="658" 
d="M103 340q-14 0 -25 5.5t-11 17.5v282l-19 -15q-7 -4 -14 -4q-10 0 -17 9t-7 19q0 8 3.5 15t10.5 11l67 47q7 5 16 5q11 0 21.5 -6.5t10.5 -16.5v-346q0 -12 -11 -17.5t-25 -5.5zM87 -35q-17 0 -28 11.5t-11 25.5q0 8 3 15l368 735q9 18 30 18q15 0 28.5 -10.5t13.5 -27.5
q0 -9 -4 -16l-367 -732q-4 -9 -13.5 -14t-19.5 -5zM561 0q-13 0 -24 5.5t-11 17.5v62h-141q-10 0 -17.5 6.5t-7.5 18.5q0 7 4 14l138 248q6 10 14.5 14.5t16.5 4.5q11 0 24 -7.5t13 -19.5q0 -5 -3 -10l-114 -202h73v52q0 12 11 17.5t24 5.5q15 0 26 -5.5t11 -17.5v-52h28
q11 0 17 -10.5t6 -23.5q0 -12 -7 -22.5t-16 -10.5h-28v-62q0 -12 -11 -17.5t-26 -5.5z" />
    <glyph glyph-name="onehalf" unicode="&#xbd;" horiz-adv-x="667" 
d="M103 340q-14 0 -25 5.5t-11 17.5v282l-19 -15q-7 -4 -14 -4q-10 0 -17 9t-7 19q0 8 3.5 15t10.5 11l67 47q7 5 16 5q11 0 21.5 -6.5t10.5 -16.5v-346q0 -12 -11 -17.5t-25 -5.5zM87 -35q-17 0 -28 11.5t-11 25.5q0 8 3 15l368 735q9 18 30 18q15 0 28.5 -10.5t13.5 -27.5
q0 -9 -4 -16l-367 -732q-4 -9 -13.5 -14t-19.5 -5zM412 0q-10 0 -21 6.5t-11 16.5v52q0 26 19 47t47 40.5t56 38t47 38t19 41.5q0 15 -13.5 30t-43.5 15q-22 0 -37 -10.5t-15 -34.5q0 -10 -10.5 -18.5t-28.5 -8.5q-14 0 -23.5 8t-9.5 30q0 32 17.5 54t46 34t60.5 12
q34 0 63.5 -13t47.5 -37.5t18 -58.5t-18.5 -60t-46 -45.5t-55.5 -36t-46.5 -31.5t-18.5 -31v-14h164q9 0 16 -9.5t7 -22.5q0 -12 -7 -22t-16 -10h-207z" />
    <glyph glyph-name="threequarters" unicode="&#xbe;" horiz-adv-x="798" 
d="M155 337q-46 0 -75.5 15.5t-43 38t-13.5 44.5q0 17 8 22.5t26 5.5q23 0 30 -6t7 -19q0 -11 8 -19.5t22 -13t33 -4.5q34 0 49.5 13t15.5 42v10q0 30 -18.5 39.5t-47.5 9.5q-12 0 -17.5 9t-5.5 19q0 11 5.5 19.5t17.5 9.5q23 1 39 9.5t16 41.5q0 26 -14 36t-39 10
q-20 0 -31.5 -4.5t-17 -12t-5.5 -18.5q0 -12 -7 -19.5t-27 -7.5q-25 0 -31.5 6.5t-6.5 23.5q0 20 11.5 41.5t39 37t75.5 15.5q54 0 88 -21t34 -75q0 -31 -12 -55t-34 -34q27 -9 43.5 -28t16.5 -52v-10q0 -43 -19 -69.5t-50 -38t-70 -11.5zM227 -35q-17 0 -28 11.5t-11 25.5
q0 8 3 15l368 735q9 18 30 18q15 0 28.5 -10.5t13.5 -27.5q0 -9 -4 -16l-367 -732q-4 -9 -13.5 -14t-19.5 -5zM701 0q-13 0 -24 5.5t-11 17.5v62h-141q-10 0 -17.5 6.5t-7.5 18.5q0 7 4 14l138 248q6 10 14.5 14.5t16.5 4.5q11 0 24 -7.5t13 -19.5q0 -5 -3 -10l-114 -202h73
v52q0 12 11 17.5t24 5.5q15 0 26 -5.5t11 -17.5v-52h28q11 0 17 -10.5t6 -23.5q0 -12 -7 -22.5t-16 -10.5h-28v-62q0 -12 -11 -17.5t-26 -5.5z" />
    <glyph glyph-name="questiondown" unicode="&#xbf;" horiz-adv-x="423" 
d="M228 -6q-63 0 -107.5 23t-68 62t-23.5 87q0 42 14.5 74.5t35.5 58t41.5 44t32.5 30.5q22 20 31 40t11 44t2 56q0 12 8.5 21.5t32.5 9.5q21 0 30 -9.5t9 -36.5q0 -50 -7.5 -81.5t-20 -50.5t-25.5 -32q-14 -14 -32.5 -29t-35.5 -33t-28 -41.5t-11 -54.5q0 -48 31 -74.5
t84 -26.5q35 0 54.5 9t30.5 21.5t20 22t23 9.5t27.5 -10t13.5 -31q0 -20 -20.5 -44t-59 -41t-93.5 -17zM238 618q-24 0 -42 18t-18 42t17.5 42t42.5 18t42 -18t17 -42t-17.5 -42t-41.5 -18z" />
    <glyph glyph-name="Agrave" unicode="&#xc0;" horiz-adv-x="561" 
d="M79 0q-14 0 -30 6t-26 15.5t-10 22.5q0 3 1 9l199 648q6 18 25.5 27t41.5 9q23 0 42.5 -9t25.5 -27l198 -648q2 -6 2 -9q0 -12 -10.5 -22t-26 -16t-30.5 -6q-13 0 -22.5 5t-13.5 17l-41 142h-248l-40 -142q-3 -12 -13.5 -17t-23.5 -5zM180 249h200l-100 343zM323 824
q-4 0 -7 1l-6 2l-121 61q-16 8 -16 27q0 14 9.5 27.5t24.5 13.5q5 0 11 -2l124 -63q15 -8 15 -26q0 -14 -9.5 -27.5t-24.5 -13.5z" />
    <glyph glyph-name="Aacute" unicode="&#xc1;" horiz-adv-x="561" 
d="M79 0q-14 0 -30 6t-26 15.5t-10 22.5q0 3 1 9l199 648q6 18 25.5 27t41.5 9q23 0 42.5 -9t25.5 -27l198 -648q2 -6 2 -9q0 -12 -10.5 -22t-26 -16t-30.5 -6q-13 0 -22.5 5t-13.5 17l-41 142h-248l-40 -142q-3 -12 -13.5 -17t-23.5 -5zM180 249h200l-100 343zM244 824
q-14 0 -24.5 13.5t-10.5 27.5q0 18 15 26l124 63q6 2 11 2q15 0 24.5 -13.5t9.5 -27.5q0 -19 -16 -27l-121 -61l-6 -2t-6 -1z" />
    <glyph glyph-name="Acircumflex" unicode="&#xc2;" horiz-adv-x="561" 
d="M79 0q-14 0 -30 6t-26 15.5t-10 22.5q0 3 1 9l199 648q6 18 25.5 27t41.5 9q23 0 42.5 -9t25.5 -27l198 -648q2 -6 2 -9q0 -12 -10.5 -22t-26 -16t-30.5 -6q-13 0 -22.5 5t-13.5 17l-41 142h-248l-40 -142q-3 -12 -13.5 -17t-23.5 -5zM180 249h200l-100 343zM167 829
q-11 0 -18.5 10.5t-7.5 24.5q0 9 4.5 17.5t13.5 13.5l104 56q9 5 17 5t17 -5l104 -55q11 -5 15 -14.5t4 -18.5q0 -13 -7 -23.5t-19 -10.5q-2 0 -4.5 1t-5.5 2l-104 56l-104 -56q-2 -1 -4.5 -2t-4.5 -1z" />
    <glyph glyph-name="Atilde" unicode="&#xc3;" horiz-adv-x="561" 
d="M79 0q-14 0 -30 6t-26 15.5t-10 22.5q0 3 1 9l199 648q6 18 25.5 27t41.5 9q23 0 42.5 -9t25.5 -27l198 -648q2 -6 2 -9q0 -12 -10.5 -22t-26 -16t-30.5 -6q-13 0 -22.5 5t-13.5 17l-41 142h-248l-40 -142q-3 -12 -13.5 -17t-23.5 -5zM180 249h200l-100 343zM360 843
q-30 0 -51.5 8t-41.5 15.5t-46 7.5q-21 0 -35 -6.5t-24 -13.5t-19 -7q-10 0 -16.5 6.5t-9 15.5t-2.5 14q0 20 9.5 32t24 19t29 10t24.5 3q28 0 49 -7.5t42 -15.5t47 -8q22 0 35 6.5t22.5 12.5t19.5 6q11 0 17 -6.5t8.5 -14.5t2.5 -13q0 -21 -9.5 -33.5t-23.5 -19.5t-28.5 -9
t-23.5 -2z" />
    <glyph glyph-name="Adieresis" unicode="&#xc4;" horiz-adv-x="561" 
d="M79 0q-14 0 -30 6t-26 15.5t-10 22.5q0 3 1 9l199 648q6 18 25.5 27t41.5 9q23 0 42.5 -9t25.5 -27l198 -648q2 -6 2 -9q0 -12 -10.5 -22t-26 -16t-30.5 -6q-13 0 -22.5 5t-13.5 17l-41 142h-248l-40 -142q-3 -12 -13.5 -17t-23.5 -5zM180 249h200l-100 343zM350 830
q-19 0 -32 14t-13 33t13 32.5t32 13.5t32 -13.5t13 -32.5t-13 -33t-32 -14zM211 830q-19 0 -32.5 14t-13.5 33t13.5 32.5t32.5 13.5t31.5 -13.5t12.5 -32.5t-12.5 -33t-31.5 -14z" />
    <glyph glyph-name="Aring" unicode="&#xc5;" horiz-adv-x="561" 
d="M79 0q-14 0 -30 6t-26 15.5t-10 22.5q0 3 1 9l199 648q6 18 25.5 27t41.5 9q23 0 42.5 -9t25.5 -27l198 -648q2 -6 2 -9q0 -12 -10.5 -22t-26 -16t-30.5 -6q-13 0 -22.5 5t-13.5 17l-41 142h-248l-40 -142q-3 -12 -13.5 -17t-23.5 -5zM180 249h200l-100 343zM280 817
q-25 0 -47 13.5t-35 36.5t-13 48q0 26 12.5 48t34.5 36t49 14q25 0 47 -13.5t35.5 -36t13.5 -47.5q0 -26 -13.5 -48.5t-35.5 -36.5t-48 -14zM281 861q21 0 35.5 17t14.5 37q0 19 -14.5 34.5t-35.5 15.5q-22 0 -37 -16t-15 -34q0 -19 15.5 -36.5t36.5 -17.5z" />
    <glyph glyph-name="AE" unicode="&#xc6;" horiz-adv-x="760" 
d="M110 0q-26 0 -36.5 11.5t-10.5 28.5v468q0 81 29 130t79 71t111 22h424q18 0 26 -15t8 -31q0 -19 -9 -33.5t-25 -14.5h-231v-229h130q16 0 25 -13t9 -30q0 -14 -8 -27.5t-26 -13.5h-130v-230h231q16 0 25 -14t9 -34q0 -16 -8 -31t-26 -15h-290q-17 0 -32 9t-15 26v289
h-206v-284q0 -17 -9 -28.5t-44 -11.5zM163 408h206v229h-87q-56 0 -87.5 -31.5t-31.5 -97.5v-100z" />
    <glyph glyph-name="Ccedilla" unicode="&#xc7;" horiz-adv-x="541" 
d="M280 -6q-60 0 -110.5 22t-80.5 71t-30 130v291q0 81 30 130t81 71t111 22q69 0 119.5 -23.5t79 -64t28.5 -93.5q0 -34 -13 -44.5t-40 -10.5q-24 0 -38 8.5t-15 26.5q-1 13 -5 31t-15.5 35.5t-34.5 29t-63 11.5q-58 0 -89 -31.5t-31 -97.5v-291q0 -66 31.5 -97.5
t91.5 -31.5q38 0 60.5 11.5t33.5 29t15 37t6 35.5q1 19 15.5 27t36.5 8q28 0 41 -11t13 -44q0 -54 -28.5 -96.5t-79.5 -66.5t-120 -24zM296 -214q-15 0 -34.5 3t-33.5 9.5t-14 15.5q0 4 2.5 11.5t7 14t10.5 6.5q7 0 20 -7t37 -7q25 0 37.5 10t12.5 26q0 17 -13.5 26.5
t-40.5 11.5l-48 5l26 98h51l-18 -64q51 -1 74 -23t23 -52q0 -17 -9.5 -37t-31 -33.5t-58.5 -13.5z" />
    <glyph glyph-name="Egrave" unicode="&#xc8;" horiz-adv-x="522" 
d="M113 0q-17 0 -32 9t-15 26v661q0 17 15 26t32 9h356q19 0 27 -15t8 -31q0 -19 -9 -33.5t-26 -14.5h-297v-229h154q17 0 26 -13t9 -30q0 -14 -8 -27.5t-27 -13.5h-154v-230h297q17 0 26 -14t9 -34q0 -16 -8 -31t-27 -15h-356zM323 824q-4 0 -7 1l-6 2l-121 61
q-16 8 -16 27q0 14 9.5 27.5t24.5 13.5q5 0 11 -2l124 -63q15 -8 15 -26q0 -14 -9.5 -27.5t-24.5 -13.5z" />
    <glyph glyph-name="Eacute" unicode="&#xc9;" horiz-adv-x="522" 
d="M113 0q-17 0 -32 9t-15 26v661q0 17 15 26t32 9h356q19 0 27 -15t8 -31q0 -19 -9 -33.5t-26 -14.5h-297v-229h154q17 0 26 -13t9 -30q0 -14 -8 -27.5t-27 -13.5h-154v-230h297q17 0 26 -14t9 -34q0 -16 -8 -31t-27 -15h-356zM244 824q-14 0 -24.5 13.5t-10.5 27.5
q0 18 15 26l124 63q6 2 11 2q15 0 24.5 -13.5t9.5 -27.5q0 -19 -16 -27l-121 -61l-6 -2t-6 -1z" />
    <glyph glyph-name="Ecircumflex" unicode="&#xca;" horiz-adv-x="522" 
d="M113 0q-17 0 -32 9t-15 26v661q0 17 15 26t32 9h356q19 0 27 -15t8 -31q0 -19 -9 -33.5t-26 -14.5h-297v-229h154q17 0 26 -13t9 -30q0 -14 -8 -27.5t-27 -13.5h-154v-230h297q17 0 26 -14t9 -34q0 -16 -8 -31t-27 -15h-356zM168 829q-11 0 -18.5 10.5t-7.5 24.5
q0 9 4.5 17.5t13.5 13.5l104 56q9 5 17 5t17 -5l104 -55q11 -5 15 -14.5t4 -18.5q0 -13 -7 -23.5t-19 -10.5q-2 0 -4.5 1t-5.5 2l-104 56l-104 -56q-2 -1 -4.5 -2t-4.5 -1z" />
    <glyph glyph-name="Edieresis" unicode="&#xcb;" horiz-adv-x="522" 
d="M113 0q-17 0 -32 9t-15 26v661q0 17 15 26t32 9h356q19 0 27 -15t8 -31q0 -19 -9 -33.5t-26 -14.5h-297v-229h154q17 0 26 -13t9 -30q0 -14 -8 -27.5t-27 -13.5h-154v-230h297q17 0 26 -14t9 -34q0 -16 -8 -31t-27 -15h-356zM350 830q-19 0 -32 14t-13 33t13 32.5
t32 13.5t32 -13.5t13 -32.5t-13 -33t-32 -14zM211 830q-19 0 -32.5 14t-13.5 33t13.5 32.5t32.5 13.5t31.5 -13.5t12.5 -32.5t-12.5 -33t-31.5 -14z" />
    <glyph glyph-name="Igrave" unicode="&#xcc;" horiz-adv-x="238" 
d="M119 0q-20 0 -36.5 9t-16.5 26v662q0 18 16.5 26t36.5 8t36.5 -8t16.5 -26v-662q0 -17 -16.5 -26t-36.5 -9zM161 824q-4 0 -7 1l-6 2l-121 61q-16 8 -16 27q0 14 9.5 27.5t24.5 13.5q5 0 11 -2l124 -63q15 -8 15 -26q0 -14 -9.5 -27.5t-24.5 -13.5z" />
    <glyph glyph-name="Iacute" unicode="&#xcd;" horiz-adv-x="238" 
d="M119 0q-20 0 -36.5 9t-16.5 26v662q0 18 16.5 26t36.5 8t36.5 -8t16.5 -26v-662q0 -17 -16.5 -26t-36.5 -9zM82 824q-14 0 -24.5 13.5t-10.5 27.5q0 18 15 26l124 63q6 2 11 2q15 0 24.5 -13.5t9.5 -27.5q0 -19 -16 -27l-121 -61l-6 -2t-6 -1z" />
    <glyph glyph-name="Icircumflex" unicode="&#xce;" horiz-adv-x="238" 
d="M119 0q-20 0 -36.5 9t-16.5 26v662q0 18 16.5 26t36.5 8t36.5 -8t16.5 -26v-662q0 -17 -16.5 -26t-36.5 -9zM6 829q-11 0 -18.5 10.5t-7.5 24.5q0 9 4.5 17.5t13.5 13.5l104 56q9 5 17 5t17 -5l104 -55q11 -5 15 -14.5t4 -18.5q0 -13 -7 -23.5t-19 -10.5q-2 0 -4.5 1
t-5.5 2l-104 56l-104 -56q-2 -1 -4.5 -2t-4.5 -1z" />
    <glyph glyph-name="Idieresis" unicode="&#xcf;" horiz-adv-x="238" 
d="M119 0q-20 0 -36.5 9t-16.5 26v662q0 18 16.5 26t36.5 8t36.5 -8t16.5 -26v-662q0 -17 -16.5 -26t-36.5 -9zM188 830q-19 0 -32 14t-13 33t13 32.5t32 13.5t32 -13.5t13 -32.5t-13 -33t-32 -14zM49 830q-19 0 -32.5 14t-13.5 33t13.5 32.5t32.5 13.5t31.5 -13.5
t12.5 -32.5t-12.5 -33t-31.5 -14z" />
    <glyph glyph-name="Eth" unicode="&#xd0;" horiz-adv-x="581" 
d="M121 0q-21 0 -34 10t-13 24v310h-49q-14 0 -22 12t-8 27t8 27t22 12h49v275q0 14 13 24t34 10h177q63 0 114 -22t81 -71t30 -130v-285q0 -81 -30 -130t-81 -71t-114 -22h-177zM180 94h118q56 0 87.5 31.5t31.5 97.5v285q0 66 -31.5 97.5t-87.5 31.5h-118v-215h90
q14 0 22 -12t8 -27q0 -16 -8 -27.5t-22 -11.5h-90v-250z" />
    <glyph glyph-name="Ntilde" unicode="&#xd1;" horiz-adv-x="593" 
d="M119 0q-20 0 -36.5 9t-16.5 26v661q0 19 16.5 27t36.5 8q19 0 32.5 -5.5t24.5 -18.5t23 -36l222 -433v459q0 18 16.5 26t36.5 8t36.5 -8t16.5 -26v-662q0 -17 -16.5 -26t-36.5 -9t-36 10t-27 29l-239 455v-459q0 -17 -16.5 -26t-36.5 -9zM377 843q-30 0 -51.5 8
t-41.5 15.5t-46 7.5q-21 0 -35 -6.5t-24 -13.5t-19 -7q-10 0 -16.5 6.5t-9 15.5t-2.5 14q0 20 9.5 32t24 19t29 10t24.5 3q28 0 49 -7.5t42 -15.5t47 -8q22 0 35 6.5t22.5 12.5t19.5 6q11 0 17 -6.5t8.5 -14.5t2.5 -13q0 -21 -9.5 -33.5t-23.5 -19.5t-28.5 -9t-23.5 -2z" />
    <glyph glyph-name="Ograve" unicode="&#xd2;" horiz-adv-x="566" 
d="M283 -6q-64 0 -114.5 22t-80 71t-29.5 130v291q0 81 29.5 130t80 71t114.5 22q63 0 114 -22t81 -71t30 -130v-291q0 -81 -30 -130t-81 -71t-114 -22zM283 88q55 0 87 31.5t32 97.5v291q0 66 -31.5 97.5t-87.5 31.5t-87.5 -31.5t-31.5 -97.5v-291q0 -66 31.5 -97.5
t87.5 -31.5zM326 824q-4 0 -7 1l-6 2l-121 61q-16 8 -16 27q0 14 9.5 27.5t24.5 13.5q5 0 11 -2l124 -63q15 -8 15 -26q0 -14 -9.5 -27.5t-24.5 -13.5z" />
    <glyph glyph-name="Oacute" unicode="&#xd3;" horiz-adv-x="566" 
d="M283 -6q-64 0 -114.5 22t-80 71t-29.5 130v291q0 81 29.5 130t80 71t114.5 22q63 0 114 -22t81 -71t30 -130v-291q0 -81 -30 -130t-81 -71t-114 -22zM283 88q55 0 87 31.5t32 97.5v291q0 66 -31.5 97.5t-87.5 31.5t-87.5 -31.5t-31.5 -97.5v-291q0 -66 31.5 -97.5
t87.5 -31.5zM246 824q-14 0 -24.5 13.5t-10.5 27.5q0 18 15 26l124 63q6 2 11 2q15 0 24.5 -13.5t9.5 -27.5q0 -19 -16 -27l-121 -61l-6 -2t-6 -1z" />
    <glyph glyph-name="Ocircumflex" unicode="&#xd4;" horiz-adv-x="566" 
d="M283 -6q-64 0 -114.5 22t-80 71t-29.5 130v291q0 81 29.5 130t80 71t114.5 22q63 0 114 -22t81 -71t30 -130v-291q0 -81 -30 -130t-81 -71t-114 -22zM283 88q55 0 87 31.5t32 97.5v291q0 66 -31.5 97.5t-87.5 31.5t-87.5 -31.5t-31.5 -97.5v-291q0 -66 31.5 -97.5
t87.5 -31.5zM170 829q-11 0 -18.5 10.5t-7.5 24.5q0 9 4.5 17.5t13.5 13.5l104 56q9 5 17 5t17 -5l104 -55q11 -5 15 -14.5t4 -18.5q0 -13 -7 -23.5t-19 -10.5q-2 0 -4.5 1t-5.5 2l-104 56l-104 -56q-2 -1 -4.5 -2t-4.5 -1z" />
    <glyph glyph-name="Otilde" unicode="&#xd5;" horiz-adv-x="566" 
d="M283 -6q-64 0 -114.5 22t-80 71t-29.5 130v291q0 81 29.5 130t80 71t114.5 22q63 0 114 -22t81 -71t30 -130v-291q0 -81 -30 -130t-81 -71t-114 -22zM283 88q55 0 87 31.5t32 97.5v291q0 66 -31.5 97.5t-87.5 31.5t-87.5 -31.5t-31.5 -97.5v-291q0 -66 31.5 -97.5
t87.5 -31.5zM363 843q-30 0 -51.5 8t-41.5 15.5t-46 7.5q-21 0 -35 -6.5t-24 -13.5t-19 -7q-10 0 -16.5 6.5t-9 15.5t-2.5 14q0 20 9.5 32t24 19t29 10t24.5 3q28 0 49 -7.5t42 -15.5t47 -8q22 0 35 6.5t22.5 12.5t19.5 6q11 0 17 -6.5t8.5 -14.5t2.5 -13q0 -21 -9.5 -33.5
t-23.5 -19.5t-28.5 -9t-23.5 -2z" />
    <glyph glyph-name="Odieresis" unicode="&#xd6;" horiz-adv-x="566" 
d="M283 -6q-64 0 -114.5 22t-80 71t-29.5 130v291q0 81 29.5 130t80 71t114.5 22q63 0 114 -22t81 -71t30 -130v-291q0 -81 -30 -130t-81 -71t-114 -22zM283 88q55 0 87 31.5t32 97.5v291q0 66 -31.5 97.5t-87.5 31.5t-87.5 -31.5t-31.5 -97.5v-291q0 -66 31.5 -97.5
t87.5 -31.5zM353 830q-19 0 -32 14t-13 33t13 32.5t32 13.5t32 -13.5t13 -32.5t-13 -33t-32 -14zM214 830q-19 0 -32.5 14t-13.5 33t13.5 32.5t32.5 13.5t31.5 -13.5t12.5 -32.5t-12.5 -33t-31.5 -14z" />
    <glyph glyph-name="multiply" unicode="&#xd7;" horiz-adv-x="403" 
d="M96 121q-11 0 -22 7.5t-19 19t-8 23.5q0 13 9 22l89 82l-88 81q-8 9 -8 23q0 18 15 33.5t33 15.5q13 0 23 -9l81 -82l81 82q9 9 23 9q18 0 33.5 -15.5t15.5 -33.5q0 -14 -9 -23l-87 -81l88 -82q9 -9 9 -23q0 -11 -7.5 -22.5t-18.5 -19t-24 -7.5q-12 0 -22 9l-82 83
l-82 -83q-9 -9 -23 -9z" />
    <glyph glyph-name="Oslash" unicode="&#xd8;" horiz-adv-x="566" 
d="M283 -6q-64 0 -114.5 22t-80 71t-29.5 130v291q0 81 29.5 130t80 71t114.5 22q63 0 114 -22t81 -71t30 -130v-291q0 -81 -30 -130t-81 -71t-114 -22zM283 88q55 0 87 31.5t32 97.5v291q0 66 -31.5 97.5t-87.5 31.5t-87.5 -31.5t-31.5 -97.5v-291q0 -66 31.5 -97.5
t87.5 -31.5zM107 -38q-17 0 -28 11.5t-11 25.5q0 8 4 15l368 735q8 18 29 18q15 0 28.5 -10.5t13.5 -27.5q0 -9 -3 -16l-367 -732q-4 -9 -13.5 -14t-20.5 -5z" />
    <glyph glyph-name="Ugrave" unicode="&#xd9;" horiz-adv-x="582" 
d="M291 -6q-64 0 -116 22t-82 71t-30 130v480q0 18 16 26t37 8q19 0 36 -8t17 -26v-480q0 -66 32 -97.5t90 -31.5q57 0 90 31.5t33 97.5v480q0 18 16 26t37 8q19 0 36 -8t17 -26v-480q0 -81 -30.5 -130t-82.5 -71t-116 -22zM334 824q-4 0 -7 1l-6 2l-121 61q-16 8 -16 27
q0 14 9.5 27.5t24.5 13.5q5 0 11 -2l124 -63q15 -8 15 -26q0 -14 -9.5 -27.5t-24.5 -13.5z" />
    <glyph glyph-name="Uacute" unicode="&#xda;" horiz-adv-x="582" 
d="M291 -6q-64 0 -116 22t-82 71t-30 130v480q0 18 16 26t37 8q19 0 36 -8t17 -26v-480q0 -66 32 -97.5t90 -31.5q57 0 90 31.5t33 97.5v480q0 18 16 26t37 8q19 0 36 -8t17 -26v-480q0 -81 -30.5 -130t-82.5 -71t-116 -22zM254 824q-14 0 -24.5 13.5t-10.5 27.5q0 18 15 26
l124 63q6 2 11 2q15 0 24.5 -13.5t9.5 -27.5q0 -19 -16 -27l-121 -61l-6 -2t-6 -1z" />
    <glyph glyph-name="Ucircumflex" unicode="&#xdb;" horiz-adv-x="582" 
d="M291 -6q-64 0 -116 22t-82 71t-30 130v480q0 18 16 26t37 8q19 0 36 -8t17 -26v-480q0 -66 32 -97.5t90 -31.5q57 0 90 31.5t33 97.5v480q0 18 16 26t37 8q19 0 36 -8t17 -26v-480q0 -81 -30.5 -130t-82.5 -71t-116 -22zM178 829q-11 0 -18.5 10.5t-7.5 24.5
q0 9 4.5 17.5t13.5 13.5l104 56q9 5 17 5t17 -5l104 -55q11 -5 15 -14.5t4 -18.5q0 -13 -7 -23.5t-19 -10.5q-2 0 -4.5 1t-5.5 2l-104 56l-104 -56q-2 -1 -4.5 -2t-4.5 -1z" />
    <glyph glyph-name="Udieresis" unicode="&#xdc;" horiz-adv-x="582" 
d="M291 -6q-64 0 -116 22t-82 71t-30 130v480q0 18 16 26t37 8q19 0 36 -8t17 -26v-480q0 -66 32 -97.5t90 -31.5q57 0 90 31.5t33 97.5v480q0 18 16 26t37 8q19 0 36 -8t17 -26v-480q0 -81 -30.5 -130t-82.5 -71t-116 -22zM360 830q-19 0 -32 14t-13 33t13 32.5t32 13.5
t32 -13.5t13 -32.5t-13 -33t-32 -14zM221 830q-19 0 -32.5 14t-13.5 33t13.5 32.5t32.5 13.5t31.5 -13.5t12.5 -32.5t-12.5 -33t-31.5 -14z" />
    <glyph glyph-name="Yacute" unicode="&#xdd;" horiz-adv-x="556" 
d="M278 0q-20 0 -36.5 9t-16.5 26v253q0 6 -3 11l-207 373q-2 5 -2.5 8.5t-0.5 6.5q0 13 11 22.5t26.5 15.5t29.5 6q13 0 20.5 -6t13.5 -18l165 -317l164 317q7 12 14.5 18t20.5 6q14 0 29.5 -6t26.5 -15.5t11 -22.5q0 -3 -0.5 -6.5t-3.5 -8.5l-206 -373q-3 -5 -3 -11v-253
q0 -17 -16.5 -26t-36.5 -9zM241 824q-14 0 -24.5 13.5t-10.5 27.5q0 18 15 26l124 63q6 2 11 2q15 0 24.5 -13.5t9.5 -27.5q0 -19 -16 -27l-121 -61l-6 -2t-6 -1z" />
    <glyph glyph-name="Thorn" unicode="&#xde;" horiz-adv-x="510" 
d="M118 0q-22 0 -37 11t-15 24v672q0 15 14.5 24.5t35.5 9.5q24 0 39.5 -9.5t15.5 -25.5v-161q16 30 50.5 53t82.5 23t87.5 -23.5t63.5 -64.5t24 -95v-121q0 -52 -24.5 -94t-63 -66.5t-82.5 -24.5q-30 0 -58.5 11t-49 29t-30.5 39v-176q0 -13 -15.5 -24t-37.5 -11zM275 226
q26 0 48.5 11t36.5 32t14 48v121q0 27 -14 47t-37 31.5t-49 11.5t-49.5 -11.5t-38.5 -31t-15 -47.5v-128q0 -16 13.5 -36t37 -34t53.5 -14z" />
    <glyph glyph-name="germandbls" unicode="&#xdf;" horiz-adv-x="580" 
d="M342 -20q-15 0 -32.5 1.5t-33.5 6.5t-26 16t-10 30q0 10 3 21.5t9 20t16 8.5t26.5 -7.5t44.5 -7.5q50 0 78.5 33.5t28.5 95.5v15q0 43 -15 75.5t-45 52.5t-73 27q-17 3 -27 11t-10 32t10 30.5t28 9.5q21 4 33.5 15t19 27t8.5 33.5t2 33.5q0 51 -21.5 83t-69.5 32
q-33 0 -52 -15t-27 -38t-8 -49v-539q0 -15 -16 -24.5t-38 -9.5q-21 0 -36 9.5t-15 24.5v362h-62q-14 0 -21.5 12t-7.5 27t7.5 27t21.5 12h62v99q0 52 18.5 96.5t59 71.5t107.5 27q52 0 94.5 -19.5t67 -60t24.5 -103.5q0 -34 -8 -67t-23 -58.5t-38 -36.5q36 -6 70.5 -33
t58 -70.5t23.5 -98.5v-15q0 -75 -29 -125t-76 -75.5t-101 -25.5z" />
    <glyph glyph-name="agrave" unicode="&#xe0;" horiz-adv-x="459" 
d="M158 -8q-55 0 -94 32.5t-39 99.5q0 57 30 88t82.5 43t121.5 12h44v18q0 26 -9.5 50.5t-31 41t-58.5 16.5t-57 -7t-32 -15t-22 -8q-18 0 -28 17.5t-10 35.5t23.5 32.5t58.5 23t69 8.5q74 0 118 -27.5t64 -71.5t20 -95v-251q0 -14 -14.5 -24.5t-36.5 -10.5q-20 0 -34 10.5
t-14 24.5v35q-26 -30 -63 -54t-88 -24zM196 72q25 0 49.5 15t41 38t16.5 47v37h-25q-38 0 -72 -4.5t-54.5 -20t-20.5 -47.5q0 -34 18.5 -49.5t46.5 -15.5zM261 574q-4 0 -7 1l-6 2l-121 61q-16 8 -16 27q0 14 9.5 27.5t24.5 13.5q5 0 11 -2l124 -63q15 -8 15 -26
q0 -14 -9.5 -27.5t-24.5 -13.5z" />
    <glyph glyph-name="aacute" unicode="&#xe1;" horiz-adv-x="459" 
d="M158 -8q-55 0 -94 32.5t-39 99.5q0 57 30 88t82.5 43t121.5 12h44v18q0 26 -9.5 50.5t-31 41t-58.5 16.5t-57 -7t-32 -15t-22 -8q-18 0 -28 17.5t-10 35.5t23.5 32.5t58.5 23t69 8.5q74 0 118 -27.5t64 -71.5t20 -95v-251q0 -14 -14.5 -24.5t-36.5 -10.5q-20 0 -34 10.5
t-14 24.5v35q-26 -30 -63 -54t-88 -24zM196 72q25 0 49.5 15t41 38t16.5 47v37h-25q-38 0 -72 -4.5t-54.5 -20t-20.5 -47.5q0 -34 18.5 -49.5t46.5 -15.5zM181 574q-14 0 -24.5 13.5t-10.5 27.5q0 18 15 26l124 63q6 2 11 2q15 0 24.5 -13.5t9.5 -27.5q0 -19 -16 -27
l-121 -61l-6 -2t-6 -1z" />
    <glyph glyph-name="acircumflex" unicode="&#xe2;" horiz-adv-x="459" 
d="M158 -8q-55 0 -94 32.5t-39 99.5q0 57 30 88t82.5 43t121.5 12h44v18q0 26 -9.5 50.5t-31 41t-58.5 16.5t-57 -7t-32 -15t-22 -8q-18 0 -28 17.5t-10 35.5t23.5 32.5t58.5 23t69 8.5q74 0 118 -27.5t64 -71.5t20 -95v-251q0 -14 -14.5 -24.5t-36.5 -10.5q-20 0 -34 10.5
t-14 24.5v35q-26 -30 -63 -54t-88 -24zM196 72q25 0 49.5 15t41 38t16.5 47v37h-25q-38 0 -72 -4.5t-54.5 -20t-20.5 -47.5q0 -34 18.5 -49.5t46.5 -15.5zM105 579q-11 0 -18.5 10.5t-7.5 24.5q0 9 4.5 17.5t13.5 13.5l104 56q9 5 17 5t17 -5l104 -55q11 -5 15 -14.5
t4 -18.5q0 -13 -7 -23.5t-19 -10.5q-2 0 -4.5 1t-5.5 2l-104 56l-104 -56q-2 -1 -4.5 -2t-4.5 -1z" />
    <glyph glyph-name="atilde" unicode="&#xe3;" horiz-adv-x="459" 
d="M158 -8q-55 0 -94 32.5t-39 99.5q0 57 30 88t82.5 43t121.5 12h44v18q0 26 -9.5 50.5t-31 41t-58.5 16.5t-57 -7t-32 -15t-22 -8q-18 0 -28 17.5t-10 35.5t23.5 32.5t58.5 23t69 8.5q74 0 118 -27.5t64 -71.5t20 -95v-251q0 -14 -14.5 -24.5t-36.5 -10.5q-20 0 -34 10.5
t-14 24.5v35q-26 -30 -63 -54t-88 -24zM196 72q25 0 49.5 15t41 38t16.5 47v37h-25q-38 0 -72 -4.5t-54.5 -20t-20.5 -47.5q0 -34 18.5 -49.5t46.5 -15.5zM298 593q-30 0 -51.5 8t-41.5 15.5t-46 7.5q-21 0 -35 -6.5t-24 -13.5t-19 -7q-10 0 -16.5 6.5t-9 15.5t-2.5 14
q0 20 9.5 32t24 19t29 10t24.5 3q28 0 49 -7.5t42 -15.5t47 -8q22 0 35 6.5t22.5 12.5t19.5 6q11 0 17 -6.5t8.5 -14.5t2.5 -13q0 -21 -9.5 -33.5t-23.5 -19.5t-28.5 -9t-23.5 -2z" />
    <glyph glyph-name="adieresis" unicode="&#xe4;" horiz-adv-x="459" 
d="M158 -8q-55 0 -94 32.5t-39 99.5q0 57 30 88t82.5 43t121.5 12h44v18q0 26 -9.5 50.5t-31 41t-58.5 16.5t-57 -7t-32 -15t-22 -8q-18 0 -28 17.5t-10 35.5t23.5 32.5t58.5 23t69 8.5q74 0 118 -27.5t64 -71.5t20 -95v-251q0 -14 -14.5 -24.5t-36.5 -10.5q-20 0 -34 10.5
t-14 24.5v35q-26 -30 -63 -54t-88 -24zM196 72q25 0 49.5 15t41 38t16.5 47v37h-25q-38 0 -72 -4.5t-54.5 -20t-20.5 -47.5q0 -34 18.5 -49.5t46.5 -15.5zM288 580q-19 0 -32 14t-13 33t13 32.5t32 13.5t32 -13.5t13 -32.5t-13 -33t-32 -14zM149 580q-19 0 -32.5 14
t-13.5 33t13.5 32.5t32.5 13.5t31.5 -13.5t12.5 -32.5t-12.5 -33t-31.5 -14z" />
    <glyph glyph-name="aring" unicode="&#xe5;" horiz-adv-x="459" 
d="M158 -8q-55 0 -94 32.5t-39 99.5q0 57 30 88t82.5 43t121.5 12h44v18q0 26 -9.5 50.5t-31 41t-58.5 16.5t-57 -7t-32 -15t-22 -8q-18 0 -28 17.5t-10 35.5t23.5 32.5t58.5 23t69 8.5q74 0 118 -27.5t64 -71.5t20 -95v-251q0 -14 -14.5 -24.5t-36.5 -10.5q-20 0 -34 10.5
t-14 24.5v35q-26 -30 -63 -54t-88 -24zM196 72q25 0 49.5 15t41 38t16.5 47v37h-25q-38 0 -72 -4.5t-54.5 -20t-20.5 -47.5q0 -34 18.5 -49.5t46.5 -15.5zM218 567q-25 0 -47 13.5t-35 36.5t-13 48q0 26 12.5 48t34.5 36t49 14q25 0 47 -13.5t35.5 -36t13.5 -47.5
q0 -26 -13.5 -48.5t-35.5 -36.5t-48 -14zM219 611q21 0 35.5 17t14.5 37q0 19 -14.5 34.5t-35.5 15.5q-22 0 -37 -16t-15 -34q0 -19 15.5 -36.5t36.5 -17.5z" />
    <glyph glyph-name="ae" unicode="&#xe6;" horiz-adv-x="741" 
d="M173 -8q-39 0 -73 14t-54.5 43.5t-20.5 74.5q0 57 29.5 88t81.5 43t121 12h45v18q0 26 -9.5 51t-31.5 41.5t-59 16.5q-36 0 -56.5 -7.5t-32.5 -15.5t-22 -8q-18 0 -28 18t-10 36t24 32.5t59 23t69 8.5q57 0 95 -23.5t60 -60.5q26 37 65 60t85 23q37 0 72.5 -12
t64.5 -36.5t46 -60t17 -82.5q0 -37 -11 -54t-31.5 -21.5t-48.5 -4.5h-211v-23q0 -50 36 -79.5t92 -29.5q36 0 58 10t37 19t28 9t21.5 -7.5t14 -18.5t5.5 -21q0 -17 -23.5 -34.5t-62 -29.5t-85.5 -12q-57 0 -105 25.5t-77 72.5q-34 -48 -81 -73t-93 -25zM195 72q27 0 51 15.5
t40 38.5t16 46v37h-26q-38 0 -71.5 -4.5t-54 -20t-20.5 -48.5q0 -32 18.5 -48t46.5 -16zM408 274h166q23 0 30 6t7 23q0 27 -13.5 49.5t-36.5 35t-52 12.5q-27 0 -50 -11.5t-37 -33t-14 -48.5v-33z" />
    <glyph glyph-name="ccedilla" unicode="&#xe7;" horiz-adv-x="425" 
d="M247 -8q-72 0 -118.5 26t-68.5 71t-22 102v90q0 56 22 101.5t68 71.5t117 26q46 0 80.5 -11t54 -27.5t19.5 -34.5q0 -9 -5.5 -21.5t-15 -21t-22.5 -8.5q-10 0 -21.5 8t-30.5 15.5t-51 7.5q-56 0 -83 -28t-27 -78v-90q0 -50 27 -78t84 -28q33 0 52 8.5t30.5 16.5t22.5 8
q14 0 24.5 -8t16 -20t5.5 -22q0 -17 -20.5 -35t-56 -29.5t-81.5 -11.5zM252 -214q-15 0 -34.5 3t-33.5 9.5t-14 15.5q0 4 2.5 11.5t7 14t10.5 6.5q7 0 20 -7t37 -7q25 0 37.5 10t12.5 26q0 17 -13.5 26.5t-40.5 11.5l-48 5l26 98h51l-18 -64q51 -1 74 -23t23 -52
q0 -17 -9.5 -37t-31 -33.5t-58.5 -13.5z" />
    <glyph glyph-name="egrave" unicode="&#xe8;" horiz-adv-x="475" 
d="M269 -8q-68 0 -120 25t-82 69.5t-30 104.5v95q0 53 28.5 97t75.5 70.5t104 26.5q54 0 99 -23.5t72.5 -65.5t27.5 -96q0 -42 -13 -60t-34 -22t-44 -4h-211v-23q0 -50 36.5 -79.5t93.5 -29.5q35 0 57 10t37 19t28 9t22 -8t14 -19t5 -20q0 -15 -20.5 -33t-57.5 -30.5
t-88 -12.5zM142 274h166q22 0 29.5 6t7.5 24q0 26 -13 48.5t-36 35t-52 12.5q-28 0 -51 -12t-37 -33t-14 -49v-32zM288 576q-4 0 -7 1l-6 2l-121 61q-16 8 -16 27q0 14 9.5 27.5t24.5 13.5q5 0 11 -2l124 -63q15 -8 15 -26q0 -14 -9.5 -27.5t-24.5 -13.5z" />
    <glyph glyph-name="eacute" unicode="&#xe9;" horiz-adv-x="475" 
d="M269 -8q-68 0 -120 25t-82 69.5t-30 104.5v95q0 53 28.5 97t75.5 70.5t104 26.5q54 0 99 -23.5t72.5 -65.5t27.5 -96q0 -42 -13 -60t-34 -22t-44 -4h-211v-23q0 -50 36.5 -79.5t93.5 -29.5q35 0 57 10t37 19t28 9t22 -8t14 -19t5 -20q0 -15 -20.5 -33t-57.5 -30.5
t-88 -12.5zM142 274h166q22 0 29.5 6t7.5 24q0 26 -13 48.5t-36 35t-52 12.5q-28 0 -51 -12t-37 -33t-14 -49v-32zM208 576q-14 0 -24.5 13.5t-10.5 27.5q0 18 15 26l124 63q6 2 11 2q15 0 24.5 -13.5t9.5 -27.5q0 -19 -16 -27l-121 -61l-6 -2t-6 -1z" />
    <glyph glyph-name="ecircumflex" unicode="&#xea;" horiz-adv-x="475" 
d="M269 -8q-68 0 -120 25t-82 69.5t-30 104.5v95q0 53 28.5 97t75.5 70.5t104 26.5q54 0 99 -23.5t72.5 -65.5t27.5 -96q0 -42 -13 -60t-34 -22t-44 -4h-211v-23q0 -50 36.5 -79.5t93.5 -29.5q35 0 57 10t37 19t28 9t22 -8t14 -19t5 -20q0 -15 -20.5 -33t-57.5 -30.5
t-88 -12.5zM142 274h166q22 0 29.5 6t7.5 24q0 26 -13 48.5t-36 35t-52 12.5q-28 0 -51 -12t-37 -33t-14 -49v-32zM132 581q-11 0 -18.5 10.5t-7.5 24.5q0 9 4.5 17.5t13.5 13.5l104 56q9 5 17 5t17 -5l104 -55q11 -5 15 -14.5t4 -18.5q0 -13 -7 -23.5t-19 -10.5
q-2 0 -4.5 1t-5.5 2l-104 56l-104 -56q-2 -1 -4.5 -2t-4.5 -1z" />
    <glyph glyph-name="edieresis" unicode="&#xeb;" horiz-adv-x="475" 
d="M269 -8q-68 0 -120 25t-82 69.5t-30 104.5v95q0 53 28.5 97t75.5 70.5t104 26.5q54 0 99 -23.5t72.5 -65.5t27.5 -96q0 -42 -13 -60t-34 -22t-44 -4h-211v-23q0 -50 36.5 -79.5t93.5 -29.5q35 0 57 10t37 19t28 9t22 -8t14 -19t5 -20q0 -15 -20.5 -33t-57.5 -30.5
t-88 -12.5zM142 274h166q22 0 29.5 6t7.5 24q0 26 -13 48.5t-36 35t-52 12.5q-28 0 -51 -12t-37 -33t-14 -49v-32zM314 582q-19 0 -32 14t-13 33t13 32.5t32 13.5t32 -13.5t13 -32.5t-13 -33t-32 -14zM175 582q-19 0 -32.5 14t-13.5 33t13.5 32.5t32.5 13.5t31.5 -13.5
t12.5 -32.5t-12.5 -33t-31.5 -14z" />
    <glyph glyph-name="igrave" unicode="&#xec;" horiz-adv-x="214" 
d="M107 0q-23 0 -37.5 11t-14.5 24v405q0 15 14.5 24.5t37.5 9.5q22 0 37.5 -9.5t15.5 -24.5v-405q0 -13 -15.5 -24t-37.5 -11zM149 575q-4 0 -7 1l-6 2l-121 61q-16 8 -16 27q0 14 9.5 27.5t24.5 13.5q5 0 11 -2l124 -63q15 -8 15 -26q0 -14 -9.5 -27.5t-24.5 -13.5z" />
    <glyph glyph-name="iacute" unicode="&#xed;" horiz-adv-x="214" 
d="M107 0q-23 0 -37.5 11t-14.5 24v405q0 15 14.5 24.5t37.5 9.5q22 0 37.5 -9.5t15.5 -24.5v-405q0 -13 -15.5 -24t-37.5 -11zM70 576q-14 0 -24.5 13.5t-10.5 27.5q0 18 15 26l124 63q6 2 11 2q15 0 24.5 -13.5t9.5 -27.5q0 -19 -16 -27l-121 -61l-6 -2t-6 -1z" />
    <glyph glyph-name="icircumflex" unicode="&#xee;" horiz-adv-x="214" 
d="M107 0q-23 0 -37.5 11t-14.5 24v405q0 15 14.5 24.5t37.5 9.5q22 0 37.5 -9.5t15.5 -24.5v-405q0 -13 -15.5 -24t-37.5 -11zM-6 580q-11 0 -18.5 10.5t-7.5 24.5q0 9 4.5 17.5t13.5 13.5l104 56q9 5 17 5t17 -5l104 -55q11 -5 15 -14.5t4 -18.5q0 -13 -7 -23.5t-19 -10.5
q-2 0 -4.5 1t-5.5 2l-104 56l-104 -56q-2 -1 -4.5 -2t-4.5 -1z" />
    <glyph glyph-name="idieresis" unicode="&#xef;" horiz-adv-x="214" 
d="M107 0q-23 0 -37.5 11t-14.5 24v405q0 15 14.5 24.5t37.5 9.5q22 0 37.5 -9.5t15.5 -24.5v-405q0 -13 -15.5 -24t-37.5 -11zM176 581q-19 0 -32 14t-13 33t13 32.5t32 13.5t32 -13.5t13 -32.5t-13 -33t-32 -14zM37 581q-19 0 -32.5 14t-13.5 33t13.5 32.5t32.5 13.5
t31.5 -13.5t12.5 -32.5t-12.5 -33t-31.5 -14z" />
    <glyph glyph-name="eth" unicode="&#xf0;" horiz-adv-x="501" 
d="M244 -8q-41 0 -78.5 16t-66.5 44t-45.5 64t-16.5 75v92q0 54 24 98.5t64 71.5t89 27q30 0 56.5 -10.5t47 -28.5t29.5 -41q-3 55 -18 100t-37 78l-65 -38q-4 -4 -11 -4q-14 0 -26 14.5t-12 29.5t13 22l57 34q-14 15 -30.5 23t-31.5 9q-8 6 -15.5 14.5t-7.5 22.5q0 10 5 22
t16.5 21t32.5 9q30 0 62 -17t60 -49l62 36q6 3 12 3q14 0 26 -13.5t12 -28.5t-14 -23l-58 -35q34 -58 53.5 -131t19.5 -147v-161q0 -52 -28.5 -98t-75.5 -73.5t-104 -27.5zM244 85q29 0 52 15t37 39.5t14 51.5v94q0 29 -14.5 52t-38.5 36.5t-51 13.5q-28 0 -51.5 -15
t-36.5 -39t-13 -50v-92q0 -27 13.5 -51.5t37.5 -39.5t51 -15z" />
    <glyph glyph-name="ntilde" unicode="&#xf1;" horiz-adv-x="512" 
d="M107 0q-23 0 -37.5 11t-14.5 24v405q0 15 14.5 24.5t37.5 9.5q19 0 33 -9.5t14 -24.5v-36q15 29 49.5 52.5t84.5 23.5q47 0 86.5 -26.5t63.5 -71t24 -99.5v-248q0 -17 -16.5 -26t-36.5 -9q-18 0 -35 9t-17 26v248q0 26 -13.5 50t-36.5 39t-51 15q-24 0 -46 -12.5
t-36 -35.5t-14 -56v-248q0 -13 -15.5 -24t-37.5 -11zM336 586q-30 0 -51.5 8t-41.5 15.5t-46 7.5q-21 0 -35 -6.5t-24 -13.5t-19 -7q-10 0 -16.5 6.5t-9 15.5t-2.5 14q0 20 9.5 32t24 19t29 10t24.5 3q28 0 49 -7.5t42 -15.5t47 -8q22 0 35 6.5t22.5 12.5t19.5 6
q11 0 17 -6.5t8.5 -14.5t2.5 -13q0 -21 -9.5 -33.5t-23.5 -19.5t-28.5 -9t-23.5 -2z" />
    <glyph glyph-name="ograve" unicode="&#xf2;" horiz-adv-x="486" 
d="M242 -8q-54 0 -101 28t-75.5 73.5t-28.5 97.5v92q0 53 27.5 98t75 72t103.5 27t103 -26.5t75.5 -71t28.5 -99.5v-92q0 -51 -28.5 -97t-76 -74t-103.5 -28zM243 85q28 0 51 15t37 39.5t14 51.5v92q0 26 -14 50t-37 39t-51 15q-29 0 -51.5 -15t-36 -39t-13.5 -50v-92
q0 -27 13.5 -51.5t36.5 -39.5t51 -15zM285 575q-4 0 -7 1l-6 2l-121 61q-16 8 -16 27q0 14 9.5 27.5t24.5 13.5q5 0 11 -2l124 -63q15 -8 15 -26q0 -14 -9.5 -27.5t-24.5 -13.5z" />
    <glyph glyph-name="oacute" unicode="&#xf3;" horiz-adv-x="486" 
d="M242 -8q-54 0 -101 28t-75.5 73.5t-28.5 97.5v92q0 53 27.5 98t75 72t103.5 27t103 -26.5t75.5 -71t28.5 -99.5v-92q0 -51 -28.5 -97t-76 -74t-103.5 -28zM243 85q28 0 51 15t37 39.5t14 51.5v92q0 26 -14 50t-37 39t-51 15q-29 0 -51.5 -15t-36 -39t-13.5 -50v-92
q0 -27 13.5 -51.5t36.5 -39.5t51 -15zM206 576q-14 0 -24.5 13.5t-10.5 27.5q0 18 15 26l124 63q6 2 11 2q15 0 24.5 -13.5t9.5 -27.5q0 -19 -16 -27l-121 -61l-6 -2t-6 -1z" />
    <glyph glyph-name="ocircumflex" unicode="&#xf4;" horiz-adv-x="486" 
d="M242 -8q-54 0 -101 28t-75.5 73.5t-28.5 97.5v92q0 53 27.5 98t75 72t103.5 27t103 -26.5t75.5 -71t28.5 -99.5v-92q0 -51 -28.5 -97t-76 -74t-103.5 -28zM243 85q28 0 51 15t37 39.5t14 51.5v92q0 26 -14 50t-37 39t-51 15q-29 0 -51.5 -15t-36 -39t-13.5 -50v-92
q0 -27 13.5 -51.5t36.5 -39.5t51 -15zM130 580q-11 0 -18.5 10.5t-7.5 24.5q0 9 4.5 17.5t13.5 13.5l104 56q9 5 17 5t17 -5l104 -55q11 -5 15 -14.5t4 -18.5q0 -13 -7 -23.5t-19 -10.5q-2 0 -4.5 1t-5.5 2l-104 56l-104 -56q-2 -1 -4.5 -2t-4.5 -1z" />
    <glyph glyph-name="otilde" unicode="&#xf5;" horiz-adv-x="486" 
d="M242 -8q-54 0 -101 28t-75.5 73.5t-28.5 97.5v92q0 53 27.5 98t75 72t103.5 27t103 -26.5t75.5 -71t28.5 -99.5v-92q0 -51 -28.5 -97t-76 -74t-103.5 -28zM243 85q28 0 51 15t37 39.5t14 51.5v92q0 26 -14 50t-37 39t-51 15q-29 0 -51.5 -15t-36 -39t-13.5 -50v-92
q0 -27 13.5 -51.5t36.5 -39.5t51 -15zM324 597q-30 0 -51.5 8t-41.5 15.5t-46 7.5q-21 0 -35 -6.5t-24 -13.5t-19 -7q-10 0 -16.5 6.5t-9 15.5t-2.5 14q0 20 9.5 32t24 19t29 10t24.5 3q28 0 49 -7.5t42 -15.5t47 -8q22 0 35 6.5t22.5 12.5t19.5 6q11 0 17 -6.5t8.5 -14.5
t2.5 -13q0 -21 -9.5 -33.5t-23.5 -19.5t-28.5 -9t-23.5 -2z" />
    <glyph glyph-name="odieresis" unicode="&#xf6;" horiz-adv-x="486" 
d="M242 -8q-54 0 -101 28t-75.5 73.5t-28.5 97.5v92q0 53 27.5 98t75 72t103.5 27t103 -26.5t75.5 -71t28.5 -99.5v-92q0 -51 -28.5 -97t-76 -74t-103.5 -28zM243 85q28 0 51 15t37 39.5t14 51.5v92q0 26 -14 50t-37 39t-51 15q-29 0 -51.5 -15t-36 -39t-13.5 -50v-92
q0 -27 13.5 -51.5t36.5 -39.5t51 -15zM312 581q-19 0 -32 14t-13 33t13 32.5t32 13.5t32 -13.5t13 -32.5t-13 -33t-32 -14zM173 581q-19 0 -32.5 14t-13.5 33t13.5 32.5t32.5 13.5t31.5 -13.5t12.5 -32.5t-12.5 -33t-31.5 -14z" />
    <glyph glyph-name="divide" unicode="&#xf7;" horiz-adv-x="458" 
d="M69 245q-15 0 -25 11.5t-10 29.5q0 19 10 31t25 12h318q14 0 25.5 -12t11.5 -31q0 -18 -11.5 -29.5t-25.5 -11.5h-318zM225 64q-22 0 -39.5 17t-17.5 38q0 24 17.5 39.5t39.5 15.5q21 0 39 -15.5t18 -39.5q0 -21 -18 -38t-39 -17zM225 400q-22 0 -39.5 15.5t-17.5 38.5
t17.5 39.5t39.5 16.5q21 0 39 -16.5t18 -39.5t-18 -38.5t-39 -15.5z" />
    <glyph glyph-name="oslash" unicode="&#xf8;" horiz-adv-x="486" 
d="M242 -8q-54 0 -101 28t-75.5 73.5t-28.5 97.5v92q0 53 27.5 98t75 72t103.5 27t103 -26.5t75.5 -71t28.5 -99.5v-92q0 -51 -28.5 -97t-76 -74t-103.5 -28zM243 85q28 0 51 15t37 39.5t14 51.5v92q0 26 -14 50t-37 39t-51 15q-29 0 -51.5 -15t-36 -39t-13.5 -50v-92
q0 -27 13.5 -51.5t36.5 -39.5t51 -15zM81 -32q-9 0 -17 7t-8 17q0 7 5 14l33 50l256 395l32 48q7 11 18 11t19 -8t8 -19q0 -8 -6 -17l-31 -46l-259 -395l-33 -48q-5 -9 -17 -9z" />
    <glyph glyph-name="ugrave" unicode="&#xf9;" horiz-adv-x="513" 
d="M257 -8q-56 0 -103.5 27.5t-75.5 73t-28 96.5v250q0 13 15.5 24t37.5 11q21 0 36.5 -11t15.5 -24v-250q0 -26 13.5 -50t37 -39t51.5 -15t51 15t36.5 39t13.5 50v251q0 14 16.5 24t36.5 10q23 0 37.5 -10t14.5 -24v-251q0 -53 -28 -98t-75 -72t-103 -27zM299 567
q-4 0 -7 1l-6 2l-121 61q-16 8 -16 27q0 14 9.5 27.5t24.5 13.5q5 0 11 -2l124 -63q15 -8 15 -26q0 -14 -9.5 -27.5t-24.5 -13.5z" />
    <glyph glyph-name="uacute" unicode="&#xfa;" horiz-adv-x="513" 
d="M257 -8q-56 0 -103.5 27.5t-75.5 73t-28 96.5v250q0 13 15.5 24t37.5 11q21 0 36.5 -11t15.5 -24v-250q0 -26 13.5 -50t37 -39t51.5 -15t51 15t36.5 39t13.5 50v251q0 14 16.5 24t36.5 10q23 0 37.5 -10t14.5 -24v-251q0 -53 -28 -98t-75 -72t-103 -27zM220 568
q-14 0 -24.5 13.5t-10.5 27.5q0 18 15 26l124 63q6 2 11 2q15 0 24.5 -13.5t9.5 -27.5q0 -19 -16 -27l-121 -61l-6 -2t-6 -1z" />
    <glyph glyph-name="ucircumflex" unicode="&#xfb;" horiz-adv-x="513" 
d="M257 -8q-56 0 -103.5 27.5t-75.5 73t-28 96.5v250q0 13 15.5 24t37.5 11q21 0 36.5 -11t15.5 -24v-250q0 -26 13.5 -50t37 -39t51.5 -15t51 15t36.5 39t13.5 50v251q0 14 16.5 24t36.5 10q23 0 37.5 -10t14.5 -24v-251q0 -53 -28 -98t-75 -72t-103 -27zM144 572
q-11 0 -18.5 10.5t-7.5 24.5q0 9 4.5 17.5t13.5 13.5l104 56q9 5 17 5t17 -5l104 -55q11 -5 15 -14.5t4 -18.5q0 -13 -7 -23.5t-19 -10.5q-2 0 -4.5 1t-5.5 2l-104 56l-104 -56q-2 -1 -4.5 -2t-4.5 -1z" />
    <glyph glyph-name="udieresis" unicode="&#xfc;" horiz-adv-x="513" 
d="M257 -8q-56 0 -103.5 27.5t-75.5 73t-28 96.5v250q0 13 15.5 24t37.5 11q21 0 36.5 -11t15.5 -24v-250q0 -26 13.5 -50t37 -39t51.5 -15t51 15t36.5 39t13.5 50v251q0 14 16.5 24t36.5 10q23 0 37.5 -10t14.5 -24v-251q0 -53 -28 -98t-75 -72t-103 -27zM326 573
q-19 0 -32 14t-13 33t13 32.5t32 13.5t32 -13.5t13 -32.5t-13 -33t-32 -14zM187 573q-19 0 -32.5 14t-13.5 33t13.5 32.5t32.5 13.5t31.5 -13.5t12.5 -32.5t-12.5 -33t-31.5 -14z" />
    <glyph glyph-name="yacute" unicode="&#xfd;" horiz-adv-x="454" 
d="M57 -225q-20 0 -34 8.5t-14 36.5q0 18 6 31.5t22 13.5q19 0 41.5 9.5t44 30t37 51.5t21.5 73l-169 388q-4 7 -4 14q0 13 11.5 24.5t27.5 18.5t30 7q10 0 19.5 -4.5t12.5 -14.5l126 -325l109 325q3 10 12 14.5t18 4.5q12 0 28.5 -7t29 -18.5t12.5 -26.5q0 -8 -3 -12
l-150 -391q-16 -43 -33 -87.5t-41.5 -81.5t-63 -59.5t-96.5 -22.5zM190 568q-14 0 -24.5 13.5t-10.5 27.5q0 18 15 26l124 63q6 2 11 2q15 0 24.5 -13.5t9.5 -27.5q0 -19 -16 -27l-121 -61l-6 -2t-6 -1z" />
    <glyph glyph-name="thorn" unicode="&#xfe;" horiz-adv-x="506" 
d="M107 -225q-22 0 -36.5 11t-14.5 24v912q0 15 14.5 24.5t35.5 9.5q24 0 39.5 -9.5t15.5 -24.5v-318q16 29 49 52.5t79 23.5q50 0 91 -26.5t65 -71t24 -99.5v-92q0 -52 -24.5 -97.5t-64.5 -73.5t-87 -28q-45 0 -81 23.5t-51 54.5v-260q0 -13 -15.5 -24t-38.5 -11zM262 85
q27 0 50 15t37.5 40t14.5 51v92q0 26 -14 50t-37.5 39t-52.5 15q-24 0 -47 -12.5t-37.5 -35.5t-14.5 -56v-115q0 -12 13 -31.5t36 -35.5t52 -16z" />
    <glyph glyph-name="ydieresis" unicode="&#xff;" horiz-adv-x="454" 
d="M57 -225q-20 0 -34 8.5t-14 36.5q0 18 6 31.5t22 13.5q19 0 41.5 9.5t44 30t37 51.5t21.5 73l-169 388q-4 7 -4 14q0 13 11.5 24.5t27.5 18.5t30 7q10 0 19.5 -4.5t12.5 -14.5l126 -325l109 325q3 10 12 14.5t18 4.5q12 0 28.5 -7t29 -18.5t12.5 -26.5q0 -8 -3 -12
l-150 -391q-16 -43 -33 -87.5t-41.5 -81.5t-63 -59.5t-96.5 -22.5zM296 573q-19 0 -32 14t-13 33t13 32.5t32 13.5t32 -13.5t13 -32.5t-13 -33t-32 -14zM157 573q-19 0 -32.5 14t-13.5 33t13.5 32.5t32.5 13.5t31.5 -13.5t12.5 -32.5t-12.5 -33t-31.5 -14z" />
    <glyph glyph-name="Amacron" unicode="&#x100;" horiz-adv-x="561" 
d="M79 0q-14 0 -30 6t-26 15.5t-10 22.5q0 3 1 9l199 648q6 18 25.5 27t41.5 9q23 0 42.5 -9t25.5 -27l198 -648q2 -6 2 -9q0 -12 -10.5 -22t-26 -16t-30.5 -6q-13 0 -22.5 5t-13.5 17l-41 142h-248l-40 -142q-3 -12 -13.5 -17t-23.5 -5zM180 249h200l-100 343zM175 867
q-15 0 -24.5 10t-9.5 25q0 16 9.5 26.5t24.5 10.5h209q13 0 24 -10.5t11 -26.5q0 -15 -11 -25t-24 -10h-209z" />
    <glyph glyph-name="amacron" unicode="&#x101;" horiz-adv-x="459" 
d="M158 -8q-55 0 -94 32.5t-39 99.5q0 57 30 88t82.5 43t121.5 12h44v18q0 26 -9.5 50.5t-31 41t-58.5 16.5t-57 -7t-32 -15t-22 -8q-18 0 -28 17.5t-10 35.5t23.5 32.5t58.5 23t69 8.5q74 0 118 -27.5t64 -71.5t20 -95v-251q0 -14 -14.5 -24.5t-36.5 -10.5q-20 0 -34 10.5
t-14 24.5v35q-26 -30 -63 -54t-88 -24zM196 72q25 0 49.5 15t41 38t16.5 47v37h-25q-38 0 -72 -4.5t-54.5 -20t-20.5 -47.5q0 -34 18.5 -49.5t46.5 -15.5zM113 617q-15 0 -24.5 10t-9.5 25q0 16 9.5 26.5t24.5 10.5h209q13 0 24 -10.5t11 -26.5q0 -15 -11 -25t-24 -10h-209z
" />
    <glyph glyph-name="Abreve" unicode="&#x102;" horiz-adv-x="561" 
d="M79 0q-14 0 -30 6t-26 15.5t-10 22.5q0 3 1 9l199 648q6 18 25.5 27t41.5 9q23 0 42.5 -9t25.5 -27l198 -648q2 -6 2 -9q0 -12 -10.5 -22t-26 -16t-30.5 -6q-13 0 -22.5 5t-13.5 17l-41 142h-248l-40 -142q-3 -12 -13.5 -17t-23.5 -5zM180 249h200l-100 343zM281 839
q-43 0 -78.5 29t-45.5 71q-3 12 4 19t18 7h13q10 0 16 -5.5t9 -15.5q6 -25 24.5 -40.5t39.5 -15.5q22 0 39.5 15.5t23.5 40.5q3 10 9 15.5t16 5.5h13q11 0 18.5 -7t4.5 -19q-11 -42 -46.5 -71t-77.5 -29z" />
    <glyph glyph-name="abreve" unicode="&#x103;" horiz-adv-x="459" 
d="M158 -8q-55 0 -94 32.5t-39 99.5q0 57 30 88t82.5 43t121.5 12h44v18q0 26 -9.5 50.5t-31 41t-58.5 16.5t-57 -7t-32 -15t-22 -8q-18 0 -28 17.5t-10 35.5t23.5 32.5t58.5 23t69 8.5q74 0 118 -27.5t64 -71.5t20 -95v-251q0 -14 -14.5 -24.5t-36.5 -10.5q-20 0 -34 10.5
t-14 24.5v35q-26 -30 -63 -54t-88 -24zM196 72q25 0 49.5 15t41 38t16.5 47v37h-25q-38 0 -72 -4.5t-54.5 -20t-20.5 -47.5q0 -34 18.5 -49.5t46.5 -15.5zM218 589q-43 0 -78.5 29t-45.5 71q-3 12 4 19t18 7h13q10 0 16 -5.5t9 -15.5q6 -25 24.5 -40.5t39.5 -15.5
q22 0 39.5 15.5t23.5 40.5q3 10 9 15.5t16 5.5h13q11 0 18.5 -7t4.5 -19q-11 -42 -46.5 -71t-77.5 -29z" />
    <glyph glyph-name="Aogonek" unicode="&#x104;" horiz-adv-x="561" 
d="M79 0q-14 0 -30 6t-26 15.5t-10 22.5q0 3 1 9l199 648q6 18 25.5 27t41.5 9q23 0 42.5 -9t25.5 -27l198 -648q2 -6 2 -9q0 -12 -10.5 -22t-26 -16t-30.5 -6q-13 0 -22.5 5t-13.5 17l-41 142h-248l-40 -142q-3 -12 -13.5 -17t-23.5 -5zM180 249h200l-100 343zM498 -208
q-33 0 -57.5 9.5t-38 29t-13.5 45.5q0 42 24 81t65 67l42 -18q-33 -23 -54.5 -55.5t-21.5 -65.5q0 -23 15 -34.5t45 -11.5q11 0 16.5 -7.5t5.5 -17.5q0 -9 -5.5 -15.5t-22.5 -6.5z" />
    <glyph glyph-name="aogonek" unicode="&#x105;" horiz-adv-x="459" 
d="M158 -8q-55 0 -94 32.5t-39 99.5q0 57 30 88t82.5 43t121.5 12h44v18q0 26 -9.5 50.5t-31 41t-58.5 16.5t-57 -7t-32 -15t-22 -8q-18 0 -28 17.5t-10 35.5t23.5 32.5t58.5 23t69 8.5q74 0 118 -27.5t64 -71.5t20 -95v-251q0 -14 -14.5 -24.5t-36.5 -10.5q-20 0 -34 10.5
t-14 24.5v35q-26 -30 -63 -54t-88 -24zM196 72q25 0 49.5 15t41 38t16.5 47v37h-25q-38 0 -72 -4.5t-54.5 -20t-20.5 -47.5q0 -34 18.5 -49.5t46.5 -15.5zM363 -207q-33 0 -57.5 9.5t-38 29t-13.5 45.5q0 42 24 81t65 67l42 -18q-33 -23 -54.5 -55.5t-21.5 -65.5
q0 -23 15 -34.5t45 -11.5q11 0 16.5 -7.5t5.5 -17.5q0 -9 -5.5 -15.5t-22.5 -6.5z" />
    <glyph glyph-name="Cacute" unicode="&#x106;" horiz-adv-x="541" 
d="M280 -6q-60 0 -110.5 22t-80.5 71t-30 130v291q0 81 30 130t81 71t111 22q69 0 119.5 -23.5t79 -64t28.5 -93.5q0 -34 -13 -44.5t-40 -10.5q-24 0 -38 8.5t-15 26.5q-1 13 -5 31t-15.5 35.5t-34.5 29t-63 11.5q-58 0 -89 -31.5t-31 -97.5v-291q0 -66 31.5 -97.5
t91.5 -31.5q38 0 60.5 11.5t33.5 29t15 37t6 35.5q1 19 15.5 27t36.5 8q28 0 41 -11t13 -44q0 -54 -28.5 -96.5t-79.5 -66.5t-120 -24zM240 824q-14 0 -24.5 13.5t-10.5 27.5q0 18 15 26l124 63q6 2 11 2q15 0 24.5 -13.5t9.5 -27.5q0 -19 -16 -27l-121 -61l-6 -2t-6 -1z
" />
    <glyph glyph-name="cacute" unicode="&#x107;" horiz-adv-x="425" 
d="M247 -8q-72 0 -118.5 26t-68.5 71t-22 102v90q0 56 22 101.5t68 71.5t117 26q46 0 80.5 -11t54 -27.5t19.5 -34.5q0 -9 -5.5 -21.5t-15 -21t-22.5 -8.5q-10 0 -21.5 8t-30.5 15.5t-51 7.5q-56 0 -83 -28t-27 -78v-90q0 -50 27 -78t84 -28q33 0 52 8.5t30.5 16.5t22.5 8
q14 0 24.5 -8t16 -20t5.5 -22q0 -17 -20.5 -35t-56 -29.5t-81.5 -11.5zM205 577q-14 0 -24.5 13.5t-10.5 27.5q0 18 15 26l124 63q6 2 11 2q15 0 24.5 -13.5t9.5 -27.5q0 -19 -16 -27l-121 -61l-6 -2t-6 -1z" />
    <glyph glyph-name="Ccircumflex" unicode="&#x108;" horiz-adv-x="541" 
d="M280 -6q-60 0 -110.5 22t-80.5 71t-30 130v291q0 81 30 130t81 71t111 22q69 0 119.5 -23.5t79 -64t28.5 -93.5q0 -34 -13 -44.5t-40 -10.5q-24 0 -38 8.5t-15 26.5q-1 13 -5 31t-15.5 35.5t-34.5 29t-63 11.5q-58 0 -89 -31.5t-31 -97.5v-291q0 -66 31.5 -97.5
t91.5 -31.5q38 0 60.5 11.5t33.5 29t15 37t6 35.5q1 19 15.5 27t36.5 8q28 0 41 -11t13 -44q0 -54 -28.5 -96.5t-79.5 -66.5t-120 -24zM164 829q-11 0 -18.5 10.5t-7.5 24.5q0 9 4.5 17.5t13.5 13.5l104 56q9 5 17 5t17 -5l104 -55q11 -5 15 -14.5t4 -18.5q0 -13 -7 -23.5
t-19 -10.5q-2 0 -4.5 1t-5.5 2l-104 56l-104 -56q-2 -1 -4.5 -2t-4.5 -1z" />
    <glyph glyph-name="ccircumflex" unicode="&#x109;" horiz-adv-x="425" 
d="M247 -8q-72 0 -118.5 26t-68.5 71t-22 102v90q0 56 22 101.5t68 71.5t117 26q46 0 80.5 -11t54 -27.5t19.5 -34.5q0 -9 -5.5 -21.5t-15 -21t-22.5 -8.5q-10 0 -21.5 8t-30.5 15.5t-51 7.5q-56 0 -83 -28t-27 -78v-90q0 -50 27 -78t84 -28q33 0 52 8.5t30.5 16.5t22.5 8
q14 0 24.5 -8t16 -20t5.5 -22q0 -17 -20.5 -35t-56 -29.5t-81.5 -11.5zM129 581q-11 0 -18.5 10.5t-7.5 24.5q0 9 4.5 17.5t13.5 13.5l104 56q9 5 17 5t17 -5l104 -55q11 -5 15 -14.5t4 -18.5q0 -13 -7 -23.5t-19 -10.5q-2 0 -4.5 1t-5.5 2l-104 56l-104 -56q-2 -1 -4.5 -2
t-4.5 -1z" />
    <glyph glyph-name="Cdotaccent" unicode="&#x10a;" horiz-adv-x="541" 
d="M280 -6q-60 0 -110.5 22t-80.5 71t-30 130v291q0 81 30 130t81 71t111 22q69 0 119.5 -23.5t79 -64t28.5 -93.5q0 -34 -13 -44.5t-40 -10.5q-24 0 -38 8.5t-15 26.5q-1 13 -5 31t-15.5 35.5t-34.5 29t-63 11.5q-58 0 -89 -31.5t-31 -97.5v-291q0 -66 31.5 -97.5
t91.5 -31.5q38 0 60.5 11.5t33.5 29t15 37t6 35.5q1 19 15.5 27t36.5 8q28 0 41 -11t13 -44q0 -54 -28.5 -96.5t-79.5 -66.5t-120 -24zM276 831q-19 0 -33 14.5t-14 33.5t14 33.5t33 14.5q20 0 33.5 -14.5t13.5 -33.5t-13.5 -33.5t-33.5 -14.5z" />
    <glyph glyph-name="cdotaccent" unicode="&#x10b;" horiz-adv-x="425" 
d="M247 -8q-72 0 -118.5 26t-68.5 71t-22 102v90q0 56 22 101.5t68 71.5t117 26q46 0 80.5 -11t54 -27.5t19.5 -34.5q0 -9 -5.5 -21.5t-15 -21t-22.5 -8.5q-10 0 -21.5 8t-30.5 15.5t-51 7.5q-56 0 -83 -28t-27 -78v-90q0 -50 27 -78t84 -28q33 0 52 8.5t30.5 16.5t22.5 8
q14 0 24.5 -8t16 -20t5.5 -22q0 -17 -20.5 -35t-56 -29.5t-81.5 -11.5zM242 583q-19 0 -33 14.5t-14 33.5t14 33.5t33 14.5q20 0 33.5 -14.5t13.5 -33.5t-13.5 -33.5t-33.5 -14.5z" />
    <glyph glyph-name="Ccaron" unicode="&#x10c;" horiz-adv-x="541" 
d="M280 -6q-60 0 -110.5 22t-80.5 71t-30 130v291q0 81 30 130t81 71t111 22q69 0 119.5 -23.5t79 -64t28.5 -93.5q0 -34 -13 -44.5t-40 -10.5q-24 0 -38 8.5t-15 26.5q-1 13 -5 31t-15.5 35.5t-34.5 29t-63 11.5q-58 0 -89 -31.5t-31 -97.5v-291q0 -66 31.5 -97.5
t91.5 -31.5q38 0 60.5 11.5t33.5 29t15 37t6 35.5q1 19 15.5 27t36.5 8q28 0 41 -11t13 -44q0 -54 -28.5 -96.5t-79.5 -66.5t-120 -24zM276 831q-9 0 -18 7l-103 75q-9 7 -13 15t-4 18q0 12 6.5 22.5t17.5 10.5q7 0 13 -6l101 -75l102 75q6 6 13 6q11 0 17.5 -10.5
t6.5 -22.5q0 -10 -4 -18t-14 -15l-102 -75q-10 -7 -19 -7z" />
    <glyph glyph-name="ccaron" unicode="&#x10d;" horiz-adv-x="425" 
d="M247 -8q-72 0 -118.5 26t-68.5 71t-22 102v90q0 56 22 101.5t68 71.5t117 26q46 0 80.5 -11t54 -27.5t19.5 -34.5q0 -9 -5.5 -21.5t-15 -21t-22.5 -8.5q-10 0 -21.5 8t-30.5 15.5t-51 7.5q-56 0 -83 -28t-27 -78v-90q0 -50 27 -78t84 -28q33 0 52 8.5t30.5 16.5t22.5 8
q14 0 24.5 -8t16 -20t5.5 -22q0 -17 -20.5 -35t-56 -29.5t-81.5 -11.5zM242 583q-9 0 -18 7l-103 75q-9 7 -13 15t-4 18q0 12 6.5 22.5t17.5 10.5q7 0 13 -6l101 -75l102 75q6 6 13 6q11 0 17.5 -10.5t6.5 -22.5q0 -10 -4 -18t-14 -15l-102 -75q-10 -7 -19 -7z" />
    <glyph glyph-name="Dcaron" unicode="&#x10e;" horiz-adv-x="573" 
d="M113 0q-21 0 -34 10t-13 24v663q0 14 13 24t34 10h177q63 0 114.5 -22t81 -71t29.5 -130v-285q0 -81 -29.5 -130t-81 -71t-114.5 -22h-177zM172 94h118q56 0 87.5 31.5t31.5 97.5v285q0 66 -31.5 97.5t-87.5 31.5h-118v-543zM286 831q-9 0 -18 7l-103 75q-9 7 -13 15
t-4 18q0 12 6.5 22.5t17.5 10.5q7 0 13 -6l101 -75l102 75q6 6 13 6q11 0 17.5 -10.5t6.5 -22.5q0 -10 -4 -18t-14 -15l-102 -75q-10 -7 -19 -7z" />
    <glyph glyph-name="dcaron" unicode="&#x10f;" horiz-adv-x="506" 
d="M213 -8q-47 0 -87 28t-64.5 73.5t-24.5 97.5v92q0 55 24.5 99.5t64.5 71t89 26.5q48 0 81 -23.5t49 -52.5v318q0 15 16 24.5t38 9.5t36.5 -9.5t14.5 -24.5v-687q0 -13 -14.5 -24t-36.5 -11q-19 0 -33.5 11t-14.5 24v35q-15 -31 -53 -54.5t-85 -23.5zM243 85q29 0 52 16
t36.5 35.5t13.5 31.5v115q0 33 -15 56t-38 35.5t-48 12.5q-28 0 -51.5 -15t-37 -39t-13.5 -50v-92q0 -26 13.5 -51t36.5 -40t51 -15zM550 533q-12 0 -24 7.5t-12 21.5q0 7 2 12l23 53q-16 8 -25.5 22t-9.5 32q0 25 17.5 42.5t41.5 17.5q25 0 42.5 -17.5t17.5 -41.5
q0 -5 -2 -14t-7.5 -23.5t-15.5 -38t-25 -58.5q-3 -8 -10 -11.5t-13 -3.5z" />
    <glyph glyph-name="Dcroat" unicode="&#x110;" horiz-adv-x="581" 
d="M121 0q-21 0 -34 10t-13 24v310h-49q-14 0 -22 12t-8 27t8 27t22 12h49v275q0 14 13 24t34 10h177q63 0 114 -22t81 -71t30 -130v-285q0 -81 -30 -130t-81 -71t-114 -22h-177zM180 94h118q56 0 87.5 31.5t31.5 97.5v285q0 66 -31.5 97.5t-87.5 31.5h-118v-215h90
q14 0 22 -12t8 -27q0 -16 -8 -27.5t-22 -11.5h-90v-250z" />
    <glyph glyph-name="dcroat" unicode="&#x111;" horiz-adv-x="506" 
d="M213 -8q-47 0 -87 28t-64.5 73.5t-24.5 97.5v92q0 55 24.5 99.5t64.5 71t89 26.5q48 0 81 -23.5t49 -52.5v157h-93q-14 0 -21.5 12t-7.5 27t7.5 27.5t21.5 12.5h93v82q0 15 16 24.5t38 9.5t36.5 -9.5t14.5 -24.5v-82h37q14 0 22 -12.5t8 -27.5q0 -16 -8 -27.5t-22 -11.5
h-37v-526q0 -13 -14.5 -24t-36.5 -11q-19 0 -33.5 11t-14.5 24v35q-15 -31 -53 -54.5t-85 -23.5zM243 85q29 0 52 16t36.5 35.5t13.5 31.5v115q0 33 -15 56t-38 35.5t-48 12.5q-28 0 -51.5 -15t-37 -39t-13.5 -50v-92q0 -26 13.5 -51t36.5 -40t51 -15z" />
    <glyph glyph-name="Emacron" unicode="&#x112;" horiz-adv-x="522" 
d="M113 0q-17 0 -32 9t-15 26v661q0 17 15 26t32 9h356q19 0 27 -15t8 -31q0 -19 -9 -33.5t-26 -14.5h-297v-229h154q17 0 26 -13t9 -30q0 -14 -8 -27.5t-27 -13.5h-154v-230h297q17 0 26 -14t9 -34q0 -16 -8 -31t-27 -15h-356zM176 867q-15 0 -24.5 10t-9.5 25
q0 16 9.5 26.5t24.5 10.5h209q13 0 24 -10.5t11 -26.5q0 -15 -11 -25t-24 -10h-209z" />
    <glyph glyph-name="emacron" unicode="&#x113;" horiz-adv-x="475" 
d="M269 -8q-68 0 -120 25t-82 69.5t-30 104.5v95q0 53 28.5 97t75.5 70.5t104 26.5q54 0 99 -23.5t72.5 -65.5t27.5 -96q0 -42 -13 -60t-34 -22t-44 -4h-211v-23q0 -50 36.5 -79.5t93.5 -29.5q35 0 57 10t37 19t28 9t22 -8t14 -19t5 -20q0 -15 -20.5 -33t-57.5 -30.5
t-88 -12.5zM142 274h166q22 0 29.5 6t7.5 24q0 26 -13 48.5t-36 35t-52 12.5q-28 0 -51 -12t-37 -33t-14 -49v-32zM140 619q-15 0 -24.5 10t-9.5 25q0 16 9.5 26.5t24.5 10.5h209q13 0 24 -10.5t11 -26.5q0 -15 -11 -25t-24 -10h-209z" />
    <glyph glyph-name="Ebreve" unicode="&#x114;" horiz-adv-x="522" 
d="M113 0q-17 0 -32 9t-15 26v661q0 17 15 26t32 9h356q19 0 27 -15t8 -31q0 -19 -9 -33.5t-26 -14.5h-297v-229h154q17 0 26 -13t9 -30q0 -14 -8 -27.5t-27 -13.5h-154v-230h297q17 0 26 -14t9 -34q0 -16 -8 -31t-27 -15h-356zM281 839q-43 0 -78.5 29t-45.5 71q-3 12 4 19
t18 7h13q10 0 16 -5.5t9 -15.5q6 -25 24.5 -40.5t39.5 -15.5q22 0 39.5 15.5t23.5 40.5q3 10 9 15.5t16 5.5h13q11 0 18.5 -7t4.5 -19q-11 -42 -46.5 -71t-77.5 -29z" />
    <glyph glyph-name="ebreve" unicode="&#x115;" horiz-adv-x="475" 
d="M269 -8q-68 0 -120 25t-82 69.5t-30 104.5v95q0 53 28.5 97t75.5 70.5t104 26.5q54 0 99 -23.5t72.5 -65.5t27.5 -96q0 -42 -13 -60t-34 -22t-44 -4h-211v-23q0 -50 36.5 -79.5t93.5 -29.5q35 0 57 10t37 19t28 9t22 -8t14 -19t5 -20q0 -15 -20.5 -33t-57.5 -30.5
t-88 -12.5zM142 274h166q22 0 29.5 6t7.5 24q0 26 -13 48.5t-36 35t-52 12.5q-28 0 -51 -12t-37 -33t-14 -49v-32zM245 591q-43 0 -78.5 29t-45.5 71q-3 12 4 19t18 7h13q10 0 16 -5.5t9 -15.5q6 -25 24.5 -40.5t39.5 -15.5q22 0 39.5 15.5t23.5 40.5q3 10 9 15.5t16 5.5h13
q11 0 18.5 -7t4.5 -19q-11 -42 -46.5 -71t-77.5 -29z" />
    <glyph glyph-name="Edotaccent" unicode="&#x116;" horiz-adv-x="522" 
d="M113 0q-17 0 -32 9t-15 26v661q0 17 15 26t32 9h356q19 0 27 -15t8 -31q0 -19 -9 -33.5t-26 -14.5h-297v-229h154q17 0 26 -13t9 -30q0 -14 -8 -27.5t-27 -13.5h-154v-230h297q17 0 26 -14t9 -34q0 -16 -8 -31t-27 -15h-356zM281 831q-19 0 -33 14.5t-14 33.5t14 33.5
t33 14.5q20 0 33.5 -14.5t13.5 -33.5t-13.5 -33.5t-33.5 -14.5z" />
    <glyph glyph-name="edotaccent" unicode="&#x117;" horiz-adv-x="475" 
d="M269 -8q-68 0 -120 25t-82 69.5t-30 104.5v95q0 53 28.5 97t75.5 70.5t104 26.5q54 0 99 -23.5t72.5 -65.5t27.5 -96q0 -42 -13 -60t-34 -22t-44 -4h-211v-23q0 -50 36.5 -79.5t93.5 -29.5q35 0 57 10t37 19t28 9t22 -8t14 -19t5 -20q0 -15 -20.5 -33t-57.5 -30.5
t-88 -12.5zM142 274h166q22 0 29.5 6t7.5 24q0 26 -13 48.5t-36 35t-52 12.5q-28 0 -51 -12t-37 -33t-14 -49v-32zM245 583q-19 0 -33 14.5t-14 33.5t14 33.5t33 14.5q20 0 33.5 -14.5t13.5 -33.5t-13.5 -33.5t-33.5 -14.5z" />
    <glyph glyph-name="Eogonek" unicode="&#x118;" horiz-adv-x="522" 
d="M113 0q-17 0 -32 9t-15 26v661q0 17 15 26t32 9h356q19 0 27 -15t8 -31q0 -19 -9 -33.5t-26 -14.5h-297v-229h154q17 0 26 -13t9 -30q0 -14 -8 -27.5t-27 -13.5h-154v-230h297q17 0 26 -14t9 -34q0 -16 -8 -31t-27 -15h-356zM465 -208q-33 0 -57.5 9.5t-38 29t-13.5 45.5
q0 42 24 81t65 67l42 -18q-33 -23 -54.5 -55.5t-21.5 -65.5q0 -23 15 -34.5t45 -11.5q11 0 16.5 -7.5t5.5 -17.5q0 -9 -5.5 -15.5t-22.5 -6.5z" />
    <glyph glyph-name="eogonek" unicode="&#x119;" horiz-adv-x="475" 
d="M269 -8q-68 0 -120 25t-82 69.5t-30 104.5v95q0 53 28.5 97t75.5 70.5t104 26.5q54 0 99 -23.5t72.5 -65.5t27.5 -96q0 -42 -13 -60t-34 -22t-44 -4h-211v-23q0 -50 36.5 -79.5t93.5 -29.5q35 0 57 10t37 19t28 9t22 -8t14 -19t5 -20q0 -15 -20.5 -33t-57.5 -30.5
t-88 -12.5zM142 274h166q22 0 29.5 6t7.5 24q0 26 -13 48.5t-36 35t-52 12.5q-28 0 -51 -12t-37 -33t-14 -49v-32zM361 -193q-33 0 -57.5 9.5t-38 29t-13.5 45.5q0 42 24 81t65 67l42 -18q-33 -23 -54.5 -55.5t-21.5 -65.5q0 -23 15 -34.5t45 -11.5q11 0 16.5 -7.5
t5.5 -17.5q0 -9 -5.5 -15.5t-22.5 -6.5z" />
    <glyph glyph-name="Ecaron" unicode="&#x11a;" horiz-adv-x="522" 
d="M113 0q-17 0 -32 9t-15 26v661q0 17 15 26t32 9h356q19 0 27 -15t8 -31q0 -19 -9 -33.5t-26 -14.5h-297v-229h154q17 0 26 -13t9 -30q0 -14 -8 -27.5t-27 -13.5h-154v-230h297q17 0 26 -14t9 -34q0 -16 -8 -31t-27 -15h-356zM281 831q-9 0 -18 7l-103 75q-9 7 -13 15
t-4 18q0 12 6.5 22.5t17.5 10.5q7 0 13 -6l101 -75l102 75q6 6 13 6q11 0 17.5 -10.5t6.5 -22.5q0 -10 -4 -18t-14 -15l-102 -75q-10 -7 -19 -7z" />
    <glyph glyph-name="ecaron" unicode="&#x11b;" horiz-adv-x="475" 
d="M269 -8q-68 0 -120 25t-82 69.5t-30 104.5v95q0 53 28.5 97t75.5 70.5t104 26.5q54 0 99 -23.5t72.5 -65.5t27.5 -96q0 -42 -13 -60t-34 -22t-44 -4h-211v-23q0 -50 36.5 -79.5t93.5 -29.5q35 0 57 10t37 19t28 9t22 -8t14 -19t5 -20q0 -15 -20.5 -33t-57.5 -30.5
t-88 -12.5zM142 274h166q22 0 29.5 6t7.5 24q0 26 -13 48.5t-36 35t-52 12.5q-28 0 -51 -12t-37 -33t-14 -49v-32zM245 583q-9 0 -18 7l-103 75q-9 7 -13 15t-4 18q0 12 6.5 22.5t17.5 10.5q7 0 13 -6l101 -75l102 75q6 6 13 6q11 0 17.5 -10.5t6.5 -22.5q0 -10 -4 -18
t-14 -15l-102 -75q-10 -7 -19 -7z" />
    <glyph glyph-name="Gcircumflex" unicode="&#x11c;" horiz-adv-x="555" 
d="M283 -6q-64 0 -114.5 22t-80 71t-29.5 130v291q0 81 29.5 130t80 71t111.5 22q68 0 119 -23t80 -64t29 -98q0 -30 -13.5 -40.5t-39.5 -10.5q-21 0 -36.5 7.5t-16.5 27.5q-3 29 -14 53.5t-36 39t-69 14.5q-56 0 -87.5 -31.5t-31.5 -97.5v-291q0 -66 31.5 -97.5t87.5 -31.5
q55 0 87 31.5t32 97.5v82h-101q-16 0 -25 13t-9 30q0 15 9 28.5t25 13.5h172q17 0 26 -10.5t9 -25.5v-131q0 -81 -30 -130t-81 -71t-114 -22zM168 829q-11 0 -18.5 10.5t-7.5 24.5q0 9 4.5 17.5t13.5 13.5l104 56q9 5 17 5t17 -5l104 -55q11 -5 15 -14.5t4 -18.5
q0 -13 -7 -23.5t-19 -10.5q-2 0 -4.5 1t-5.5 2l-104 56l-104 -56q-2 -1 -4.5 -2t-4.5 -1z" />
    <glyph glyph-name="gcircumflex" unicode="&#x11d;" horiz-adv-x="465" 
d="M234 -225q-58 0 -107 16.5t-78 47.5t-29 74q0 40 23 66.5t54 40.5q-20 9 -33 24t-13 42q0 28 14 45t36 31q-28 22 -43.5 54.5t-15.5 71.5v28q0 48 23 85t65.5 58t97.5 21q34 0 63.5 -9t52.5 -25q16 37 32.5 52t31.5 15q21 0 32 -12t11 -24q0 -8 -4.5 -14.5t-12.5 -10.5
q-10 -5 -23.5 -13.5t-26.5 -26.5q17 -19 25 -44t8 -52v-28q0 -47 -24 -85t-67 -59.5t-98 -21.5q-39 0 -69 12q-8 -5 -13.5 -11.5t-5.5 -16.5q0 -18 22 -26t56.5 -12t73.5 -10t73.5 -19.5t56.5 -40t22 -72.5q0 -52 -29 -85.5t-76.5 -49.5t-104.5 -16zM232 -155
q49 0 79.5 21.5t30.5 56.5q0 25 -15 39t-39 21t-50.5 10t-50.5 6q-28 -10 -47.5 -28.5t-19.5 -46.5q0 -37 31.5 -58t80.5 -21zM230 189q40 0 62.5 28t22.5 71v28q0 41 -22.5 69t-63.5 28t-63 -28t-22 -69v-27q0 -42 22 -71t64 -29zM105 581q-11 0 -18.5 10.5t-7.5 24.5
q0 9 4.5 17.5t13.5 13.5l104 56q9 5 17 5t17 -5l104 -55q11 -5 15 -14.5t4 -18.5q0 -13 -7 -23.5t-19 -10.5q-2 0 -4.5 1t-5.5 2l-104 56l-104 -56q-2 -1 -4.5 -2t-4.5 -1z" />
    <glyph glyph-name="Gbreve" unicode="&#x11e;" horiz-adv-x="555" 
d="M283 -6q-64 0 -114.5 22t-80 71t-29.5 130v291q0 81 29.5 130t80 71t111.5 22q68 0 119 -23t80 -64t29 -98q0 -30 -13.5 -40.5t-39.5 -10.5q-21 0 -36.5 7.5t-16.5 27.5q-3 29 -14 53.5t-36 39t-69 14.5q-56 0 -87.5 -31.5t-31.5 -97.5v-291q0 -66 31.5 -97.5t87.5 -31.5
q55 0 87 31.5t32 97.5v82h-101q-16 0 -25 13t-9 30q0 15 9 28.5t25 13.5h172q17 0 26 -10.5t9 -25.5v-131q0 -81 -30 -130t-81 -71t-114 -22zM282 839q-43 0 -78.5 29t-45.5 71q-3 12 4 19t18 7h13q10 0 16 -5.5t9 -15.5q6 -25 24.5 -40.5t39.5 -15.5q22 0 39.5 15.5
t23.5 40.5q3 10 9 15.5t16 5.5h13q11 0 18.5 -7t4.5 -19q-11 -42 -46.5 -71t-77.5 -29z" />
    <glyph glyph-name="gbreve" unicode="&#x11f;" horiz-adv-x="465" 
d="M234 -225q-58 0 -107 16.5t-78 47.5t-29 74q0 40 23 66.5t54 40.5q-20 9 -33 24t-13 42q0 28 14 45t36 31q-28 22 -43.5 54.5t-15.5 71.5v28q0 48 23 85t65.5 58t97.5 21q34 0 63.5 -9t52.5 -25q16 37 32.5 52t31.5 15q21 0 32 -12t11 -24q0 -8 -4.5 -14.5t-12.5 -10.5
q-10 -5 -23.5 -13.5t-26.5 -26.5q17 -19 25 -44t8 -52v-28q0 -47 -24 -85t-67 -59.5t-98 -21.5q-39 0 -69 12q-8 -5 -13.5 -11.5t-5.5 -16.5q0 -18 22 -26t56.5 -12t73.5 -10t73.5 -19.5t56.5 -40t22 -72.5q0 -52 -29 -85.5t-76.5 -49.5t-104.5 -16zM232 -155
q49 0 79.5 21.5t30.5 56.5q0 25 -15 39t-39 21t-50.5 10t-50.5 6q-28 -10 -47.5 -28.5t-19.5 -46.5q0 -37 31.5 -58t80.5 -21zM230 189q40 0 62.5 28t22.5 71v28q0 41 -22.5 69t-63.5 28t-63 -28t-22 -69v-27q0 -42 22 -71t64 -29zM218 591q-43 0 -78.5 29t-45.5 71
q-3 12 4 19t18 7h13q10 0 16 -5.5t9 -15.5q6 -25 24.5 -40.5t39.5 -15.5q22 0 39.5 15.5t23.5 40.5q3 10 9 15.5t16 5.5h13q11 0 18.5 -7t4.5 -19q-11 -42 -46.5 -71t-77.5 -29z" />
    <glyph glyph-name="Gdotaccent" unicode="&#x120;" horiz-adv-x="555" 
d="M283 -6q-64 0 -114.5 22t-80 71t-29.5 130v291q0 81 29.5 130t80 71t111.5 22q68 0 119 -23t80 -64t29 -98q0 -30 -13.5 -40.5t-39.5 -10.5q-21 0 -36.5 7.5t-16.5 27.5q-3 29 -14 53.5t-36 39t-69 14.5q-56 0 -87.5 -31.5t-31.5 -97.5v-291q0 -66 31.5 -97.5t87.5 -31.5
q55 0 87 31.5t32 97.5v82h-101q-16 0 -25 13t-9 30q0 15 9 28.5t25 13.5h172q17 0 26 -10.5t9 -25.5v-131q0 -81 -30 -130t-81 -71t-114 -22zM281 831q-19 0 -33 14.5t-14 33.5t14 33.5t33 14.5q20 0 33.5 -14.5t13.5 -33.5t-13.5 -33.5t-33.5 -14.5z" />
    <glyph glyph-name="gdotaccent" unicode="&#x121;" horiz-adv-x="465" 
d="M234 -225q-58 0 -107 16.5t-78 47.5t-29 74q0 40 23 66.5t54 40.5q-20 9 -33 24t-13 42q0 28 14 45t36 31q-28 22 -43.5 54.5t-15.5 71.5v28q0 48 23 85t65.5 58t97.5 21q34 0 63.5 -9t52.5 -25q16 37 32.5 52t31.5 15q21 0 32 -12t11 -24q0 -8 -4.5 -14.5t-12.5 -10.5
q-10 -5 -23.5 -13.5t-26.5 -26.5q17 -19 25 -44t8 -52v-28q0 -47 -24 -85t-67 -59.5t-98 -21.5q-39 0 -69 12q-8 -5 -13.5 -11.5t-5.5 -16.5q0 -18 22 -26t56.5 -12t73.5 -10t73.5 -19.5t56.5 -40t22 -72.5q0 -52 -29 -85.5t-76.5 -49.5t-104.5 -16zM232 -155
q49 0 79.5 21.5t30.5 56.5q0 25 -15 39t-39 21t-50.5 10t-50.5 6q-28 -10 -47.5 -28.5t-19.5 -46.5q0 -37 31.5 -58t80.5 -21zM230 189q40 0 62.5 28t22.5 71v28q0 41 -22.5 69t-63.5 28t-63 -28t-22 -69v-27q0 -42 22 -71t64 -29zM218 583q-19 0 -33 14.5t-14 33.5t14 33.5
t33 14.5q20 0 33.5 -14.5t13.5 -33.5t-13.5 -33.5t-33.5 -14.5z" />
    <glyph glyph-name="uni0122" unicode="&#x122;" horiz-adv-x="555" 
d="M283 -6q-64 0 -114.5 22t-80 71t-29.5 130v291q0 81 29.5 130t80 71t111.5 22q68 0 119 -23t80 -64t29 -98q0 -30 -13.5 -40.5t-39.5 -10.5q-21 0 -36.5 7.5t-16.5 27.5q-3 29 -14 53.5t-36 39t-69 14.5q-56 0 -87.5 -31.5t-31.5 -97.5v-291q0 -66 31.5 -97.5t87.5 -31.5
q55 0 87 31.5t32 97.5v82h-101q-16 0 -25 13t-9 30q0 15 9 28.5t25 13.5h172q17 0 26 -10.5t9 -25.5v-131q0 -81 -30 -130t-81 -71t-114 -22zM221 -181q-14 0 -24.5 14t-10.5 28q0 18 15 26l124 62q6 3 11 3q15 0 24.5 -13.5t9.5 -27.5q0 -19 -16 -28l-121 -60
q-3 -1 -6 -2.5t-6 -1.5z" />
    <glyph glyph-name="uni0123" unicode="&#x123;" horiz-adv-x="465" 
d="M234 -225q-58 0 -107 16.5t-78 47.5t-29 74q0 40 23 66.5t54 40.5q-20 9 -33 24t-13 42q0 28 14 45t36 31q-28 22 -43.5 54.5t-15.5 71.5v28q0 48 23 85t65.5 58t97.5 21q34 0 63.5 -9t52.5 -25q16 37 32.5 52t31.5 15q21 0 32 -12t11 -24q0 -8 -4.5 -14.5t-12.5 -10.5
q-10 -5 -23.5 -13.5t-26.5 -26.5q17 -19 25 -44t8 -52v-28q0 -47 -24 -85t-67 -59.5t-98 -21.5q-39 0 -69 12q-8 -5 -13.5 -11.5t-5.5 -16.5q0 -18 22 -26t56.5 -12t73.5 -10t73.5 -19.5t56.5 -40t22 -72.5q0 -52 -29 -85.5t-76.5 -49.5t-104.5 -16zM232 -155
q49 0 79.5 21.5t30.5 56.5q0 25 -15 39t-39 21t-50.5 10t-50.5 6q-28 -10 -47.5 -28.5t-19.5 -46.5q0 -37 31.5 -58t80.5 -21zM230 189q40 0 62.5 28t22.5 71v28q0 41 -22.5 69t-63.5 28t-63 -28t-22 -69v-27q0 -42 22 -71t64 -29zM186 577q-14 0 -24.5 13.5t-10.5 27.5
q0 18 15 26l124 63q7 2 11 2q15 0 24.5 -13.5t9.5 -27.5q0 -19 -15 -27l-122 -61l-6 -2t-6 -1z" />
    <glyph glyph-name="Hcircumflex" unicode="&#x124;" horiz-adv-x="593" 
d="M119 0q-20 0 -36.5 9t-16.5 26v662q0 18 16.5 26t36.5 8t36.5 -8t16.5 -26v-276h249v276q0 18 16.5 26t36.5 8t36.5 -8t16.5 -26v-662q0 -17 -16.5 -26t-36.5 -9t-36.5 9t-16.5 26v302h-249v-302q0 -17 -16.5 -26t-36.5 -9zM184 829q-11 0 -18.5 10.5t-7.5 24.5
q0 9 4.5 17.5t13.5 13.5l104 56q9 5 17 5t17 -5l104 -55q11 -5 15 -14.5t4 -18.5q0 -13 -7 -23.5t-19 -10.5q-2 0 -4.5 1t-5.5 2l-104 56l-104 -56q-2 -1 -4.5 -2t-4.5 -1z" />
    <glyph glyph-name="hcircumflex" unicode="&#x125;" horiz-adv-x="513" 
d="M108 0q-23 0 -37.5 11t-14.5 24v687q0 15 14.5 24.5t37.5 9.5q22 0 37.5 -9.5t15.5 -24.5v-318q15 29 47.5 52.5t80.5 23.5q47 0 86.5 -26.5t63.5 -71t24 -99.5v-248q0 -17 -16.5 -26t-36.5 -9q-18 0 -35 9t-17 26v248q0 26 -14 50t-36.5 39t-50.5 15q-24 0 -46 -12.5
t-36 -35.5t-14 -56v-248q0 -13 -15.5 -24t-37.5 -11zM-13 849q-11 0 -18.5 10.5t-7.5 24.5q0 9 4.5 17.5t13.5 13.5l104 56q9 5 17 5t17 -5l104 -55q11 -5 15 -14.5t4 -18.5q0 -13 -7 -23.5t-19 -10.5q-2 0 -4.5 1t-5.5 2l-104 56l-104 -56q-2 -1 -4.5 -2t-4.5 -1z" />
    <glyph glyph-name="Hbar" unicode="&#x126;" horiz-adv-x="595" 
d="M120 0q-20 0 -36.5 9t-16.5 26v502h-21q-14 0 -21 10.5t-7 24.5t7 25t21 11h21v89q0 18 16.5 26t36.5 8t36.5 -8t16.5 -26v-89h249v89q0 18 16.5 26t36.5 8t36.5 -8t16.5 -26v-89h21q14 0 21 -11t7 -25t-7 -24.5t-21 -10.5h-21v-502q0 -17 -16.5 -26t-36.5 -9t-36.5 9
t-16.5 26v302h-249v-302q0 -17 -16.5 -26t-36.5 -9zM173 421h249v116h-249v-116z" />
    <glyph glyph-name="hbar" unicode="&#x127;" horiz-adv-x="513" 
d="M108 0q-23 0 -37.5 11t-14.5 24v530h-27q-15 0 -25 10t-10 25q0 16 10 26.5t25 10.5h27v85q0 15 14.5 24.5t37.5 9.5q22 0 37.5 -9.5t15.5 -24.5v-85h76q14 0 25 -10.5t11 -26.5q0 -15 -11 -25t-25 -10h-76v-161q15 29 47.5 52.5t80.5 23.5q47 0 86.5 -26.5t63.5 -71
t24 -99.5v-248q0 -17 -16.5 -26t-36.5 -9q-18 0 -35 9t-17 26v248q0 26 -14 50t-36.5 39t-50.5 15q-24 0 -46 -12.5t-36 -35.5t-14 -56v-248q0 -13 -15.5 -24t-37.5 -11z" />
    <glyph glyph-name="Itilde" unicode="&#x128;" horiz-adv-x="238" 
d="M119 0q-20 0 -36.5 9t-16.5 26v662q0 18 16.5 26t36.5 8t36.5 -8t16.5 -26v-662q0 -17 -16.5 -26t-36.5 -9zM199 843q-30 0 -51.5 8t-41.5 15.5t-46 7.5q-21 0 -35 -6.5t-24 -13.5t-19 -7q-10 0 -16.5 6.5t-9 15.5t-2.5 14q0 20 9.5 32t24 19t29 10t24.5 3q28 0 49 -7.5
t42 -15.5t47 -8q22 0 35 6.5t22.5 12.5t19.5 6q11 0 17 -6.5t8.5 -14.5t2.5 -13q0 -21 -9.5 -33.5t-23.5 -19.5t-28.5 -9t-23.5 -2z" />
    <glyph glyph-name="itilde" unicode="&#x129;" horiz-adv-x="214" 
d="M107 0q-23 0 -37.5 11t-14.5 24v405q0 15 14.5 24.5t37.5 9.5q22 0 37.5 -9.5t15.5 -24.5v-405q0 -13 -15.5 -24t-37.5 -11zM186 594q-30 0 -51.5 8t-41.5 15.5t-46 7.5q-21 0 -35 -6.5t-24 -13.5t-19 -7q-10 0 -16.5 6.5t-9 15.5t-2.5 14q0 20 9.5 32t24 19t29 10
t24.5 3q28 0 49 -7.5t42 -15.5t47 -8q22 0 35 6.5t22.5 12.5t19.5 6q11 0 17 -6.5t8.5 -14.5t2.5 -13q0 -21 -9.5 -33.5t-23.5 -19.5t-28.5 -9t-23.5 -2z" />
    <glyph glyph-name="Imacron" unicode="&#x12a;" horiz-adv-x="238" 
d="M119 0q-20 0 -36.5 9t-16.5 26v662q0 18 16.5 26t36.5 8t36.5 -8t16.5 -26v-662q0 -17 -16.5 -26t-36.5 -9zM13 867q-15 0 -24.5 10t-9.5 25q0 16 9.5 26.5t24.5 10.5h209q13 0 24 -10.5t11 -26.5q0 -15 -11 -25t-24 -10h-209z" />
    <glyph glyph-name="imacron" unicode="&#x12b;" horiz-adv-x="214" 
d="M107 0q-23 0 -37.5 11t-14.5 24v405q0 15 14.5 24.5t37.5 9.5q22 0 37.5 -9.5t15.5 -24.5v-405q0 -13 -15.5 -24t-37.5 -11zM2 620q-15 0 -24.5 10t-9.5 25q0 16 9.5 26.5t24.5 10.5h209q13 0 24 -10.5t11 -26.5q0 -15 -11 -25t-24 -10h-209z" />
    <glyph glyph-name="Ibreve" unicode="&#x12c;" horiz-adv-x="238" 
d="M119 0q-20 0 -36.5 9t-16.5 26v662q0 18 16.5 26t36.5 8t36.5 -8t16.5 -26v-662q0 -17 -16.5 -26t-36.5 -9zM119 839q-43 0 -78.5 29t-45.5 71q-3 12 4 19t18 7h13q10 0 16 -5.5t9 -15.5q6 -25 24.5 -40.5t39.5 -15.5q22 0 39.5 15.5t23.5 40.5q3 10 9 15.5t16 5.5h13
q11 0 18.5 -7t4.5 -19q-11 -42 -46.5 -71t-77.5 -29z" />
    <glyph glyph-name="ibreve" unicode="&#x12d;" horiz-adv-x="214" 
d="M107 0q-23 0 -37.5 11t-14.5 24v405q0 15 14.5 24.5t37.5 9.5q22 0 37.5 -9.5t15.5 -24.5v-405q0 -13 -15.5 -24t-37.5 -11zM107 591q-43 0 -78.5 29t-45.5 71q-3 12 4 19t18 7h13q10 0 16 -5.5t9 -15.5q6 -25 24.5 -40.5t39.5 -15.5q22 0 39.5 15.5t23.5 40.5
q3 10 9 15.5t16 5.5h13q11 0 18.5 -7t4.5 -19q-11 -42 -46.5 -71t-77.5 -29z" />
    <glyph glyph-name="Iogonek" unicode="&#x12e;" horiz-adv-x="238" 
d="M119 0q-20 0 -36.5 9t-16.5 26v662q0 18 16.5 26t36.5 8t36.5 -8t16.5 -26v-662q0 -17 -16.5 -26t-36.5 -9zM130 -206q-33 0 -57.5 9.5t-38 29t-13.5 45.5q0 42 24 81t65 67l42 -18q-33 -23 -54.5 -55.5t-21.5 -65.5q0 -23 15 -34.5t45 -11.5q11 0 16.5 -7.5t5.5 -17.5
q0 -9 -5.5 -15.5t-22.5 -6.5z" />
    <glyph glyph-name="iogonek" unicode="&#x12f;" horiz-adv-x="214" 
d="M107 0q-23 0 -37.5 11t-14.5 24v405q0 15 14.5 24.5t37.5 9.5q22 0 37.5 -9.5t15.5 -24.5v-405q0 -13 -15.5 -24t-37.5 -11zM107 582q-19 0 -33 14.5t-14 33.5t14 33.5t33 14.5q20 0 33.5 -14.5t13.5 -33.5t-13.5 -33.5t-33.5 -14.5zM113 -205q-33 0 -57.5 9.5t-38 29
t-13.5 45.5q0 42 24 81t65 67l42 -18q-33 -23 -54.5 -55.5t-21.5 -65.5q0 -23 15 -34.5t45 -11.5q11 0 16.5 -7.5t5.5 -17.5q0 -9 -5.5 -15.5t-22.5 -6.5z" />
    <glyph glyph-name="Idotaccent" unicode="&#x130;" horiz-adv-x="238" 
d="M119 0q-20 0 -36.5 9t-16.5 26v662q0 18 16.5 26t36.5 8t36.5 -8t16.5 -26v-662q0 -17 -16.5 -26t-36.5 -9zM119 831q-19 0 -33 14.5t-14 33.5t14 33.5t33 14.5q20 0 33.5 -14.5t13.5 -33.5t-13.5 -33.5t-33.5 -14.5z" />
    <glyph glyph-name="dotlessi" unicode="&#x131;" horiz-adv-x="214" 
d="M107 0q-23 0 -37.5 11t-14.5 24v405q0 15 14.5 24.5t37.5 9.5q22 0 37.5 -9.5t15.5 -24.5v-405q0 -13 -15.5 -24t-37.5 -11z" />
    <glyph glyph-name="IJ" unicode="&#x132;" horiz-adv-x="764" 
d="M119 0q-20 0 -36.5 9t-16.5 26v662q0 18 16.5 26t36.5 8t36.5 -8t16.5 -26v-662q0 -17 -16.5 -26t-36.5 -9zM480 -6q-66 0 -118 23.5t-81 66.5t-29 101q0 30 13.5 40.5t39.5 10.5q21 0 36.5 -7.5t16.5 -27.5q1 -29 13 -55t38 -42t67 -16q57 0 88.5 31.5t31.5 97.5v420
h-117q-17 0 -26 14.5t-9 33.5q0 16 8 31t27 15h175q19 0 33.5 -9t14.5 -26v-479q0 -81 -30 -130t-80 -71t-112 -22z" />
    <glyph glyph-name="ij" unicode="&#x133;" horiz-adv-x="413" 
d="M107 593q-25 0 -43 17t-18 38q0 23 18 39t43 16t42.5 -16t17.5 -39q0 -21 -17.5 -38t-42.5 -17zM107 0q-23 0 -37.5 11t-14.5 24v405q0 15 14.5 24.5t37.5 9.5q22 0 37.5 -9.5t15.5 -24.5v-405q0 -13 -15.5 -24t-37.5 -11zM214 -225q-31 0 -42.5 14t-11.5 30
q0 21 12 33.5t29 12.5q23 0 34.5 12.5t14.5 35t3 51.5v476q0 15 14.5 24.5t36.5 9.5q23 0 38.5 -9.5t15.5 -24.5v-476q0 -55 -15.5 -98t-47.5 -67t-81 -24zM305 593q-25 0 -43 17t-18 38q0 23 18 39t43 16t42.5 -16t17.5 -39q0 -21 -17.5 -38t-42.5 -17z" />
    <glyph glyph-name="Jcircumflex" unicode="&#x134;" horiz-adv-x="526" 
d="M242 -6q-66 0 -118 23.5t-81 66.5t-29 101q0 30 13.5 40.5t39.5 10.5q21 0 36.5 -7.5t16.5 -27.5q1 -29 13 -55t38 -42t67 -16q57 0 88.5 31.5t31.5 97.5v420h-117q-17 0 -26 14.5t-9 33.5q0 16 8 31t27 15h175q19 0 33.5 -9t14.5 -26v-479q0 -81 -30 -130t-80 -71
t-112 -22zM150 829q-11 0 -18.5 10.5t-7.5 24.5q0 9 4.5 17.5t13.5 13.5l104 56q9 5 17 5t17 -5l104 -55q11 -5 15 -14.5t4 -18.5q0 -13 -7 -23.5t-19 -10.5q-2 0 -4.5 1t-5.5 2l-104 56l-104 -56q-2 -1 -4.5 -2t-4.5 -1z" />
    <glyph glyph-name="jcircumflex" unicode="&#x135;" horiz-adv-x="215" 
d="M16 -225q-31 0 -42.5 14t-11.5 30q0 21 12 33.5t29 12.5q23 0 34.5 12.5t14.5 35t3 51.5v476q0 15 14.5 24.5t36.5 9.5q23 0 38.5 -9.5t15.5 -24.5v-476q0 -55 -15.5 -98t-47.5 -67t-81 -24zM-11 581q-11 0 -18.5 10.5t-7.5 24.5q0 9 4.5 17.5t13.5 13.5l104 56q9 5 17 5
t17 -5l104 -55q11 -5 15 -14.5t4 -18.5q0 -13 -7 -23.5t-19 -10.5q-2 0 -4.5 1t-5.5 2l-104 56l-104 -56q-2 -1 -4.5 -2t-4.5 -1z" />
    <glyph glyph-name="uni0136" unicode="&#x136;" horiz-adv-x="542" 
d="M119 0q-20 0 -36.5 9t-16.5 26v662q0 18 16.5 26t36.5 8t36.5 -8t16.5 -26v-304l244 323q11 15 30 15q13 0 27.5 -8t24 -20.5t9.5 -26.5q0 -4 -2 -10t-6 -11l-192 -240l228 -347q6 -9 6 -19q0 -13 -9 -25t-23.5 -19.5t-29.5 -7.5q-11 0 -21 4.5t-17 15.5l-204 309
l-65 -82v-209q0 -17 -16.5 -26t-36.5 -9zM213 -181q-14 0 -24.5 14t-10.5 28q0 18 15 26l124 62q6 3 11 3q15 0 24.5 -13.5t9.5 -27.5q0 -19 -16 -28l-121 -60q-3 -1 -6 -2.5t-6 -1.5z" />
    <glyph glyph-name="uni0137" unicode="&#x137;" horiz-adv-x="479" 
d="M107 0q-22 0 -36.5 11t-14.5 24v687q0 15 14.5 24.5t36.5 9.5q23 0 38.5 -9.5t15.5 -24.5v-445l209 192q9 9 22 9q12 0 23.5 -7.5t19.5 -19t8 -23.5q0 -6 -2 -11.5t-7 -10.5l-129 -115l157 -226q6 -10 6 -18q0 -13 -9.5 -25t-23 -20t-26.5 -8q-18 0 -28 15l-147 217
l-73 -66v-125q0 -13 -15.5 -24t-38.5 -11zM182 -181q-14 0 -24.5 14t-10.5 28q0 18 15 26l124 62q6 3 11 3q15 0 24.5 -13.5t9.5 -27.5q0 -19 -16 -28l-121 -60q-3 -1 -6 -2.5t-6 -1.5z" />
    <glyph glyph-name="kgreenlandic" unicode="&#x138;" horiz-adv-x="478" 
d="M106 0q-22 0 -36.5 11t-14.5 24v405q0 15 14.5 24.5t36.5 9.5q23 0 38.5 -9.5t15.5 -24.5v-163l209 192q9 9 22 9q12 0 23.5 -7.5t19.5 -19t8 -23.5q0 -6 -2 -11.5t-7 -10.5l-129 -115l157 -226q6 -10 6 -18q0 -13 -9.5 -25t-23 -20t-26.5 -8q-18 0 -28 15l-147 217
l-73 -66v-125q0 -13 -15.5 -24t-38.5 -11z" />
    <glyph glyph-name="Lacute" unicode="&#x139;" horiz-adv-x="475" 
d="M113 0q-17 0 -32 9t-15 26v662q0 18 16.5 26t36.5 8t36.5 -8t16.5 -26v-603h260q16 0 24 -14.5t8 -32.5q0 -17 -8 -32t-24 -15h-319zM201 824q-14 0 -24.5 13.5t-10.5 27.5q0 18 15 26l124 63q6 2 11 2q15 0 24.5 -13.5t9.5 -27.5q0 -19 -16 -27l-121 -61l-6 -2t-6 -1z
" />
    <glyph glyph-name="lacute" unicode="&#x13a;" horiz-adv-x="232" 
d="M116 0q-23 0 -37.5 11t-14.5 24v687q0 15 14.5 24.5t37.5 9.5q22 0 37.5 -9.5t15.5 -24.5v-687q0 -13 -15.5 -24t-37.5 -11zM76 798q-14 0 -24.5 13.5t-10.5 27.5q0 18 15 26l124 63q6 2 11 2q15 0 24.5 -13.5t9.5 -27.5q0 -19 -16 -27l-121 -61l-6 -2t-6 -1z" />
    <glyph glyph-name="uni013B" unicode="&#x13b;" horiz-adv-x="475" 
d="M113 0q-17 0 -32 9t-15 26v662q0 18 16.5 26t36.5 8t36.5 -8t16.5 -26v-603h260q16 0 24 -14.5t8 -32.5q0 -17 -8 -32t-24 -15h-319zM191 -181q-14 0 -24.5 14t-10.5 28q0 18 15 26l124 62q6 3 11 3q15 0 24.5 -13.5t9.5 -27.5q0 -19 -16 -28l-121 -60q-3 -1 -6 -2.5
t-6 -1.5z" />
    <glyph glyph-name="uni013C" unicode="&#x13c;" horiz-adv-x="232" 
d="M116 0q-23 0 -37.5 11t-14.5 24v687q0 15 14.5 24.5t37.5 9.5q22 0 37.5 -9.5t15.5 -24.5v-687q0 -13 -15.5 -24t-37.5 -11zM59 -181q-14 0 -24.5 14t-10.5 28q0 18 15 26l124 62q6 3 11 3q15 0 24.5 -13.5t9.5 -27.5q0 -19 -16 -28l-121 -60q-3 -1 -6 -2.5t-6 -1.5z" />
    <glyph glyph-name="Lcaron" unicode="&#x13d;" horiz-adv-x="477" 
d="M113 0q-17 0 -32 9t-15 26v662q0 18 16.5 26t36.5 8t36.5 -8t16.5 -26v-603h260q16 0 24 -14.5t8 -32.5q0 -17 -8 -32t-24 -15h-319zM349 533q-12 0 -24 7.5t-12 21.5q0 7 2 12l23 53q-16 8 -25.5 22t-9.5 32q0 25 17.5 42.5t41.5 17.5q25 0 42.5 -17.5t17.5 -41.5
q0 -5 -2 -14t-7.5 -23.5t-15.5 -38t-25 -58.5q-3 -8 -10 -11.5t-13 -3.5z" />
    <glyph glyph-name="lcaron" unicode="&#x13e;" horiz-adv-x="232" 
d="M116 0q-23 0 -37.5 11t-14.5 24v687q0 15 14.5 24.5t37.5 9.5q22 0 37.5 -9.5t15.5 -24.5v-687q0 -13 -15.5 -24t-37.5 -11zM272 533q-12 0 -24 7.5t-12 21.5q0 7 2 12l23 53q-16 8 -25.5 22t-9.5 32q0 25 17.5 42.5t41.5 17.5q25 0 42.5 -17.5t17.5 -41.5q0 -5 -2 -14
t-7.5 -23.5t-15.5 -38t-25 -58.5q-3 -8 -10 -11.5t-13 -3.5z" />
    <glyph glyph-name="Ldot" unicode="&#x13f;" horiz-adv-x="476" 
d="M113 0q-17 0 -32 9t-15 26v662q0 18 16.5 26t36.5 8t36.5 -8t16.5 -26v-603h260q16 0 24 -14.5t8 -32.5q0 -17 -8 -32t-24 -15h-319zM357 364q-27 0 -45 17.5t-18 39.5q0 23 18 39.5t45 16.5q26 0 44 -16.5t18 -39.5q0 -22 -18 -39.5t-44 -17.5z" />
    <glyph glyph-name="ldot" unicode="&#x140;" horiz-adv-x="348" 
d="M116 0q-23 0 -37.5 11t-14.5 24v687q0 15 14.5 24.5t37.5 9.5q22 0 37.5 -9.5t15.5 -24.5v-687q0 -13 -15.5 -24t-37.5 -11zM284 243q-26 0 -44.5 17.5t-18.5 39.5q0 23 18.5 39.5t44.5 16.5t44 -16.5t18 -39.5q0 -22 -18 -39.5t-44 -17.5z" />
    <glyph glyph-name="Lslash" unicode="&#x141;" horiz-adv-x="481" 
d="M119 0q-17 0 -32 9t-15 26v239l-27 -15q-5 -3 -11 -3q-15 0 -26 15.5t-11 32.5q0 8 3 15.5t11 10.5l61 32v335q0 18 16.5 26t36.5 8t36.5 -8t16.5 -26v-284l74 40q5 2 11 2q11 0 19.5 -7t14 -18t5.5 -22q0 -19 -15 -26l-109 -57v-231h260q16 0 24 -14.5t8 -32.5
q0 -17 -8 -32t-24 -15h-319z" />
    <glyph glyph-name="lslash" unicode="&#x142;" horiz-adv-x="320" 
d="M157 0q-23 0 -37.5 11t-14.5 24v246l-40 -22q-6 -3 -12 -3q-14 0 -25.5 15.5t-11.5 32.5q0 8 3.5 15.5t10.5 10.5l75 38v354q0 15 14.5 24.5t37.5 9.5q22 0 37.5 -9.5t15.5 -24.5v-303l46 27q5 2 11 2q11 0 19.5 -7t14 -18t5.5 -22q0 -19 -15 -26l-81 -43v-297
q0 -13 -15.5 -24t-37.5 -11z" />
    <glyph glyph-name="Nacute" unicode="&#x143;" horiz-adv-x="593" 
d="M119 0q-20 0 -36.5 9t-16.5 26v661q0 19 16.5 27t36.5 8q19 0 32.5 -5.5t24.5 -18.5t23 -36l222 -433v459q0 18 16.5 26t36.5 8t36.5 -8t16.5 -26v-662q0 -17 -16.5 -26t-36.5 -9t-36 10t-27 29l-239 455v-459q0 -17 -16.5 -26t-36.5 -9zM260 824q-14 0 -24.5 13.5
t-10.5 27.5q0 18 15 26l124 63q6 2 11 2q15 0 24.5 -13.5t9.5 -27.5q0 -19 -16 -27l-121 -61l-6 -2t-6 -1z" />
    <glyph glyph-name="nacute" unicode="&#x144;" horiz-adv-x="512" 
d="M107 0q-23 0 -37.5 11t-14.5 24v405q0 15 14.5 24.5t37.5 9.5q19 0 33 -9.5t14 -24.5v-36q15 29 49.5 52.5t84.5 23.5q47 0 86.5 -26.5t63.5 -71t24 -99.5v-248q0 -17 -16.5 -26t-36.5 -9q-18 0 -35 9t-17 26v248q0 26 -13.5 50t-36.5 39t-51 15q-24 0 -46 -12.5
t-36 -35.5t-14 -56v-248q0 -13 -15.5 -24t-37.5 -11zM219 568q-14 0 -24.5 13.5t-10.5 27.5q0 18 15 26l124 63q6 2 11 2q15 0 24.5 -13.5t9.5 -27.5q0 -19 -16 -27l-121 -61l-6 -2t-6 -1z" />
    <glyph glyph-name="uni0145" unicode="&#x145;" horiz-adv-x="593" 
d="M119 0q-20 0 -36.5 9t-16.5 26v661q0 19 16.5 27t36.5 8q19 0 32.5 -5.5t24.5 -18.5t23 -36l222 -433v459q0 18 16.5 26t36.5 8t36.5 -8t16.5 -26v-662q0 -17 -16.5 -26t-36.5 -9t-36 10t-27 29l-239 455v-459q0 -17 -16.5 -26t-36.5 -9zM240 -181q-14 0 -24.5 14
t-10.5 28q0 18 15 26l124 62q6 3 11 3q15 0 24.5 -13.5t9.5 -27.5q0 -19 -16 -28l-121 -60q-3 -1 -6 -2.5t-6 -1.5z" />
    <glyph glyph-name="uni0146" unicode="&#x146;" horiz-adv-x="512" 
d="M107 0q-23 0 -37.5 11t-14.5 24v405q0 15 14.5 24.5t37.5 9.5q19 0 33 -9.5t14 -24.5v-36q15 29 49.5 52.5t84.5 23.5q47 0 86.5 -26.5t63.5 -71t24 -99.5v-248q0 -17 -16.5 -26t-36.5 -9q-18 0 -35 9t-17 26v248q0 26 -13.5 50t-36.5 39t-51 15q-24 0 -46 -12.5
t-36 -35.5t-14 -56v-248q0 -13 -15.5 -24t-37.5 -11zM199 -181q-14 0 -24.5 14t-10.5 28q0 18 15 26l124 62q6 3 11 3q15 0 24.5 -13.5t9.5 -27.5q0 -19 -16 -28l-121 -60q-3 -1 -6 -2.5t-6 -1.5z" />
    <glyph glyph-name="Ncaron" unicode="&#x147;" horiz-adv-x="593" 
d="M119 0q-20 0 -36.5 9t-16.5 26v661q0 19 16.5 27t36.5 8q19 0 32.5 -5.5t24.5 -18.5t23 -36l222 -433v459q0 18 16.5 26t36.5 8t36.5 -8t16.5 -26v-662q0 -17 -16.5 -26t-36.5 -9t-36 10t-27 29l-239 455v-459q0 -17 -16.5 -26t-36.5 -9zM297 831q-9 0 -18 7l-103 75
q-9 7 -13 15t-4 18q0 12 6.5 22.5t17.5 10.5q7 0 13 -6l101 -75l102 75q6 6 13 6q11 0 17.5 -10.5t6.5 -22.5q0 -10 -4 -18t-14 -15l-102 -75q-10 -7 -19 -7z" />
    <glyph glyph-name="ncaron" unicode="&#x148;" horiz-adv-x="512" 
d="M107 0q-23 0 -37.5 11t-14.5 24v405q0 15 14.5 24.5t37.5 9.5q19 0 33 -9.5t14 -24.5v-36q15 29 49.5 52.5t84.5 23.5q47 0 86.5 -26.5t63.5 -71t24 -99.5v-248q0 -17 -16.5 -26t-36.5 -9q-18 0 -35 9t-17 26v248q0 26 -13.5 50t-36.5 39t-51 15q-24 0 -46 -12.5
t-36 -35.5t-14 -56v-248q0 -13 -15.5 -24t-37.5 -11zM256 574q-9 0 -18 7l-103 75q-9 7 -13 15t-4 18q0 12 6.5 22.5t17.5 10.5q7 0 13 -6l101 -75l102 75q6 6 13 6q11 0 17.5 -10.5t6.5 -22.5q0 -10 -4 -18t-14 -15l-102 -75q-10 -7 -19 -7z" />
    <glyph glyph-name="Eng" unicode="&#x14a;" horiz-adv-x="594" 
d="M383 -225q-31 0 -42.5 14t-11.5 30q0 21 12 33.5t29 12.5q23 0 34 12.5t14.5 35t3.5 51.5v41q0 8 -2.5 16t-8.5 18l-239 455v-459q0 -17 -16.5 -26t-36.5 -9t-36.5 9t-16.5 26v661q0 19 16.5 27t36.5 8q19 0 32.5 -5.5t24.5 -18.5t23 -36l222 -433v459q0 18 16.5 26
t36.5 8t36.5 -8t16.5 -26v-733q0 -55 -15.5 -98t-47.5 -67t-81 -24z" />
    <glyph glyph-name="eng" unicode="&#x14b;" horiz-adv-x="512" 
d="M318 -225q-31 0 -42.5 14t-11.5 30q0 21 12 33.5t29 12.5q23 0 34.5 12.5t14.5 35t3 51.5v319q0 26 -13.5 50t-36.5 39t-51 15q-24 0 -46 -12.5t-36 -35.5t-14 -56v-248q0 -13 -15.5 -24t-37.5 -11q-23 0 -37.5 11t-14.5 24v405q0 15 14.5 24.5t37.5 9.5q19 0 33 -9.5
t14 -24.5v-36q15 29 49.5 52.5t84.5 23.5q47 0 86.5 -26.5t63.5 -71t24 -99.5v-319q0 -55 -15.5 -98t-47.5 -67t-81 -24z" />
    <glyph glyph-name="Omacron" unicode="&#x14c;" horiz-adv-x="566" 
d="M283 -6q-64 0 -114.5 22t-80 71t-29.5 130v291q0 81 29.5 130t80 71t114.5 22q63 0 114 -22t81 -71t30 -130v-291q0 -81 -30 -130t-81 -71t-114 -22zM283 88q55 0 87 31.5t32 97.5v291q0 66 -31.5 97.5t-87.5 31.5t-87.5 -31.5t-31.5 -97.5v-291q0 -66 31.5 -97.5
t87.5 -31.5zM178 867q-15 0 -24.5 10t-9.5 25q0 16 9.5 26.5t24.5 10.5h209q13 0 24 -10.5t11 -26.5q0 -15 -11 -25t-24 -10h-209z" />
    <glyph glyph-name="omacron" unicode="&#x14d;" horiz-adv-x="486" 
d="M242 -8q-54 0 -101 28t-75.5 73.5t-28.5 97.5v92q0 53 27.5 98t75 72t103.5 27t103 -26.5t75.5 -71t28.5 -99.5v-92q0 -51 -28.5 -97t-76 -74t-103.5 -28zM243 85q28 0 51 15t37 39.5t14 51.5v92q0 26 -14 50t-37 39t-51 15q-29 0 -51.5 -15t-36 -39t-13.5 -50v-92
q0 -27 13.5 -51.5t36.5 -39.5t51 -15zM137 619q-15 0 -24.5 10t-9.5 25q0 16 9.5 26.5t24.5 10.5h209q13 0 24 -10.5t11 -26.5q0 -15 -11 -25t-24 -10h-209z" />
    <glyph glyph-name="Obreve" unicode="&#x14e;" horiz-adv-x="566" 
d="M283 -6q-64 0 -114.5 22t-80 71t-29.5 130v291q0 81 29.5 130t80 71t114.5 22q63 0 114 -22t81 -71t30 -130v-291q0 -81 -30 -130t-81 -71t-114 -22zM283 88q55 0 87 31.5t32 97.5v291q0 66 -31.5 97.5t-87.5 31.5t-87.5 -31.5t-31.5 -97.5v-291q0 -66 31.5 -97.5
t87.5 -31.5zM284 839q-43 0 -78.5 29t-45.5 71q-3 12 4 19t18 7h13q10 0 16 -5.5t9 -15.5q6 -25 24.5 -40.5t39.5 -15.5q22 0 39.5 15.5t23.5 40.5q3 10 9 15.5t16 5.5h13q11 0 18.5 -7t4.5 -19q-11 -42 -46.5 -71t-77.5 -29z" />
    <glyph glyph-name="obreve" unicode="&#x14f;" horiz-adv-x="486" 
d="M242 -8q-54 0 -101 28t-75.5 73.5t-28.5 97.5v92q0 53 27.5 98t75 72t103.5 27t103 -26.5t75.5 -71t28.5 -99.5v-92q0 -51 -28.5 -97t-76 -74t-103.5 -28zM243 85q28 0 51 15t37 39.5t14 51.5v92q0 26 -14 50t-37 39t-51 15q-29 0 -51.5 -15t-36 -39t-13.5 -50v-92
q0 -27 13.5 -51.5t36.5 -39.5t51 -15zM243 591q-43 0 -78.5 29t-45.5 71q-3 12 4 19t18 7h13q10 0 16 -5.5t9 -15.5q6 -25 24.5 -40.5t39.5 -15.5q22 0 39.5 15.5t23.5 40.5q3 10 9 15.5t16 5.5h13q11 0 18.5 -7t4.5 -19q-11 -42 -46.5 -71t-77.5 -29z" />
    <glyph glyph-name="Ohungarumlaut" unicode="&#x150;" horiz-adv-x="566" 
d="M283 -6q-64 0 -114.5 22t-80 71t-29.5 130v291q0 81 29.5 130t80 71t114.5 22q63 0 114 -22t81 -71t30 -130v-291q0 -81 -30 -130t-81 -71t-114 -22zM283 88q55 0 87 31.5t32 97.5v291q0 66 -31.5 97.5t-87.5 31.5t-87.5 -31.5t-31.5 -97.5v-291q0 -66 31.5 -97.5
t87.5 -31.5zM330 834q-13 0 -23.5 10.5t-10.5 22.5q0 9 7 15l89 81q3 4 7 5t8 1q13 0 23 -10.5t10 -21.5t-8 -18l-86 -78q-6 -7 -16 -7zM176 834q-13 0 -24 10.5t-11 22.5q0 9 7 15l89 81q4 4 8 5t8 1q12 0 22 -10.5t10 -21.5t-8 -18l-85 -78q-7 -7 -16 -7z" />
    <glyph glyph-name="ohungarumlaut" unicode="&#x151;" horiz-adv-x="486" 
d="M242 -8q-54 0 -101 28t-75.5 73.5t-28.5 97.5v92q0 53 27.5 98t75 72t103.5 27t103 -26.5t75.5 -71t28.5 -99.5v-92q0 -51 -28.5 -97t-76 -74t-103.5 -28zM243 85q28 0 51 15t37 39.5t14 51.5v92q0 26 -14 50t-37 39t-51 15q-29 0 -51.5 -15t-36 -39t-13.5 -50v-92
q0 -27 13.5 -51.5t36.5 -39.5t51 -15zM290 585q-13 0 -23.5 10.5t-10.5 22.5q0 9 7 15l89 81q3 4 7 5t8 1q13 0 23 -10.5t10 -21.5t-8 -18l-86 -78q-6 -7 -16 -7zM136 585q-13 0 -24 10.5t-11 22.5q0 9 7 15l89 81q4 4 8 5t8 1q12 0 22 -10.5t10 -21.5t-8 -18l-85 -78
q-7 -7 -16 -7z" />
    <glyph glyph-name="OE" unicode="&#x152;" horiz-adv-x="834" 
d="M266 -6q-60 0 -106.5 22t-73.5 71t-27 130v291q0 81 27 130t73.5 71t106.5 22q44 0 85.5 -18t63.5 -55v38q0 17 15 26t32 9h319q19 0 27 -15t8 -31q0 -19 -9 -33.5t-26 -14.5h-272v-229h129q17 0 26 -13t9 -30q0 -14 -8 -27.5t-27 -13.5h-129v-230h272q17 0 26 -14t9 -34
q0 -16 -8 -31t-27 -15h-319q-17 0 -32 9t-15 26v32q-22 -37 -63.5 -55t-85.5 -18zM283 88q56 0 87.5 31.5t31.5 97.5v291q0 66 -31.5 97.5t-87.5 31.5t-87 -31.5t-31 -97.5v-291q0 -66 31 -97.5t87 -31.5z" />
    <glyph glyph-name="oe" unicode="&#x153;" horiz-adv-x="783" 
d="M243 -8q-55 0 -102 27.5t-75.5 73t-28.5 98.5v92q0 53 27.5 98t75 72t103.5 27q48 0 90 -23t69 -62q25 38 65 61.5t86 23.5q54 0 99 -23.5t72.5 -65t27.5 -96.5q0 -41 -13 -59.5t-34 -22.5t-44 -4h-211v-23q0 -50 36.5 -79.5t94.5 -29.5q35 0 56.5 10t36 19t27.5 9
t22 -7.5t14.5 -19t5.5 -21.5q0 -14 -21 -32t-58 -30.5t-88 -12.5q-56 0 -101.5 22.5t-73.5 62.5q-27 -38 -68.5 -61.5t-89.5 -23.5zM243 85q28 0 51 15t37 39.5t14 51.5v92q0 26 -14 50t-37 39t-51 15q-29 0 -52 -15t-36 -39t-13 -50v-92q0 -27 13 -51.5t36.5 -39.5
t51.5 -15zM450 274h166q22 0 29.5 6t7.5 24q0 26 -13.5 48.5t-36 35t-52.5 12.5q-27 0 -50 -11.5t-37 -32.5t-14 -48v-34z" />
    <glyph glyph-name="Racute" unicode="&#x154;" horiz-adv-x="553" 
d="M460 -3q-13 0 -23.5 9t-17.5 22l-147 286h-100v-279q0 -17 -16.5 -26t-36.5 -9t-36.5 9t-16.5 26v662q0 14 9.5 24t26.5 10h190q63 0 115 -18.5t83 -63t31 -122.5q0 -60 -18.5 -100t-50 -63.5t-71.5 -34.5l140 -263q2 -3 3 -7.5t1 -7.5q0 -13 -10 -25.5t-24.5 -20.5
t-30.5 -8zM172 399h120q56 0 89.5 27t33.5 92t-33.5 92t-89.5 27h-120v-238zM248 824q-14 0 -24.5 13.5t-10.5 27.5q0 18 15 26l124 63q6 2 11 2q15 0 24.5 -13.5t9.5 -27.5q0 -19 -16 -27l-121 -61l-6 -2t-6 -1z" />
    <glyph glyph-name="racute" unicode="&#x155;" horiz-adv-x="358" 
d="M106 0q-22 0 -36.5 11t-14.5 24v405q0 15 14.5 24.5t36.5 9.5q20 0 34 -9.5t14 -24.5v-44q11 21 29.5 40t43.5 31.5t54 12.5h32q16 0 28 -13.5t12 -32.5t-12 -33t-28 -14h-32q-30 0 -58 -18t-45.5 -50.5t-17.5 -78.5v-205q0 -13 -15.5 -24t-38.5 -11zM139 577
q-14 0 -24.5 13.5t-10.5 27.5q0 18 15 26l124 63q6 2 11 2q15 0 24.5 -13.5t9.5 -27.5q0 -19 -16 -27l-121 -61l-6 -2t-6 -1z" />
    <glyph glyph-name="uni0156" unicode="&#x156;" horiz-adv-x="553" 
d="M460 -3q-13 0 -23.5 9t-17.5 22l-147 286h-100v-279q0 -17 -16.5 -26t-36.5 -9t-36.5 9t-16.5 26v662q0 14 9.5 24t26.5 10h190q63 0 115 -18.5t83 -63t31 -122.5q0 -60 -18.5 -100t-50 -63.5t-71.5 -34.5l140 -263q2 -3 3 -7.5t1 -7.5q0 -13 -10 -25.5t-24.5 -20.5
t-30.5 -8zM172 399h120q56 0 89.5 27t33.5 92t-33.5 92t-89.5 27h-120v-238zM214 -181q-14 0 -24.5 14t-10.5 28q0 18 15 26l124 62q6 3 11 3q15 0 24.5 -13.5t9.5 -27.5q0 -19 -16 -28l-121 -60q-3 -1 -6 -2.5t-6 -1.5z" />
    <glyph glyph-name="uni0157" unicode="&#x157;" horiz-adv-x="358" 
d="M106 0q-22 0 -36.5 11t-14.5 24v405q0 15 14.5 24.5t36.5 9.5q20 0 34 -9.5t14 -24.5v-44q11 21 29.5 40t43.5 31.5t54 12.5h32q16 0 28 -13.5t12 -32.5t-12 -33t-28 -14h-32q-30 0 -58 -18t-45.5 -50.5t-17.5 -78.5v-205q0 -13 -15.5 -24t-38.5 -11zM39 -182
q-14 0 -24.5 14t-10.5 28q0 18 15 26l124 62q6 3 11 3q15 0 24.5 -13.5t9.5 -27.5q0 -19 -16 -28l-121 -60q-3 -1 -6 -2.5t-6 -1.5z" />
    <glyph glyph-name="Rcaron" unicode="&#x158;" horiz-adv-x="553" 
d="M460 -3q-13 0 -23.5 9t-17.5 22l-147 286h-100v-279q0 -17 -16.5 -26t-36.5 -9t-36.5 9t-16.5 26v662q0 14 9.5 24t26.5 10h190q63 0 115 -18.5t83 -63t31 -122.5q0 -60 -18.5 -100t-50 -63.5t-71.5 -34.5l140 -263q2 -3 3 -7.5t1 -7.5q0 -13 -10 -25.5t-24.5 -20.5
t-30.5 -8zM172 399h120q56 0 89.5 27t33.5 92t-33.5 92t-89.5 27h-120v-238zM284 831q-9 0 -18 7l-103 75q-9 7 -13 15t-4 18q0 12 6.5 22.5t17.5 10.5q7 0 13 -6l101 -75l102 75q6 6 13 6q11 0 17.5 -10.5t6.5 -22.5q0 -10 -4 -18t-14 -15l-102 -75q-10 -7 -19 -7z" />
    <glyph glyph-name="rcaron" unicode="&#x159;" horiz-adv-x="358" 
d="M106 0q-22 0 -36.5 11t-14.5 24v405q0 15 14.5 24.5t36.5 9.5q20 0 34 -9.5t14 -24.5v-44q11 21 29.5 40t43.5 31.5t54 12.5h32q16 0 28 -13.5t12 -32.5t-12 -33t-28 -14h-32q-30 0 -58 -18t-45.5 -50.5t-17.5 -78.5v-205q0 -13 -15.5 -24t-38.5 -11zM196 583q-9 0 -18 7
l-103 75q-9 7 -13 15t-4 18q0 12 6.5 22.5t17.5 10.5q7 0 13 -6l101 -75l102 75q6 6 13 6q11 0 17.5 -10.5t6.5 -22.5q0 -10 -4 -18t-14 -15l-102 -75q-10 -7 -19 -7z" />
    <glyph glyph-name="Sacute" unicode="&#x15a;" horiz-adv-x="511" 
d="M250 -8q-65 0 -115 19t-78 46.5t-28 52.5q0 12 6.5 25t17 22.5t22.5 9.5q14 0 26.5 -11.5t30.5 -27.5t45 -28t69 -12q36 0 64.5 11.5t45 35t16.5 59.5q0 38 -17.5 63t-47 42t-63.5 31t-69 30t-64 38.5t-46.5 57t-17.5 86.5q0 55 20.5 92t54.5 59t75 31.5t81 9.5
q25 0 55.5 -3.5t59.5 -12t48 -22.5t19 -34q0 -10 -5 -23.5t-14.5 -23.5t-24.5 -10q-13 0 -29 9.5t-41.5 19t-67.5 9.5q-36 0 -64.5 -10t-44.5 -29.5t-16 -51.5t17.5 -52.5t46.5 -35t63.5 -27.5t69 -30.5t64 -42.5t47 -63.5t17.5 -95.5q0 -72 -29.5 -119.5t-81 -70.5
t-117.5 -23zM219 824q-14 0 -24.5 13.5t-10.5 27.5q0 18 15 26l124 63q6 2 11 2q15 0 24.5 -13.5t9.5 -27.5q0 -19 -16 -27l-121 -61l-6 -2t-6 -1z" />
    <glyph glyph-name="sacute" unicode="&#x15b;" horiz-adv-x="406" 
d="M200 -8q-49 0 -88 12t-61.5 30.5t-22.5 37.5q0 9 4.5 20t13 19t18.5 8q13 0 27.5 -11.5t38.5 -23t67 -11.5q50 0 67.5 17t17.5 37q0 26 -17.5 40.5t-45 23.5t-58.5 17.5t-58.5 22.5t-45 39t-17.5 66q0 34 17 67.5t54.5 55t100.5 21.5q38 0 72 -8t56 -21.5t22 -29.5
q0 -7 -5 -19.5t-13.5 -22t-21.5 -9.5q-10 0 -25 7.5t-35 14.5t-49 7t-46.5 -9.5t-25.5 -22.5t-8 -26q0 -22 17 -34t45 -20t59 -16.5t58.5 -24.5t45 -43t17.5 -72q0 -63 -45.5 -101t-129.5 -38zM166 568q-14 0 -24.5 13.5t-10.5 27.5q0 18 15 26l124 63q6 2 11 2
q15 0 24.5 -13.5t9.5 -27.5q0 -19 -16 -27l-121 -61l-6 -2t-6 -1z" />
    <glyph glyph-name="Scircumflex" unicode="&#x15c;" horiz-adv-x="511" 
d="M250 -8q-65 0 -115 19t-78 46.5t-28 52.5q0 12 6.5 25t17 22.5t22.5 9.5q14 0 26.5 -11.5t30.5 -27.5t45 -28t69 -12q36 0 64.5 11.5t45 35t16.5 59.5q0 38 -17.5 63t-47 42t-63.5 31t-69 30t-64 38.5t-46.5 57t-17.5 86.5q0 55 20.5 92t54.5 59t75 31.5t81 9.5
q25 0 55.5 -3.5t59.5 -12t48 -22.5t19 -34q0 -10 -5 -23.5t-14.5 -23.5t-24.5 -10q-13 0 -29 9.5t-41.5 19t-67.5 9.5q-36 0 -64.5 -10t-44.5 -29.5t-16 -51.5t17.5 -52.5t46.5 -35t63.5 -27.5t69 -30.5t64 -42.5t47 -63.5t17.5 -95.5q0 -72 -29.5 -119.5t-81 -70.5
t-117.5 -23zM143 829q-11 0 -18.5 10.5t-7.5 24.5q0 9 4.5 17.5t13.5 13.5l104 56q9 5 17 5t17 -5l104 -55q11 -5 15 -14.5t4 -18.5q0 -13 -7 -23.5t-19 -10.5q-2 0 -4.5 1t-5.5 2l-104 56l-104 -56q-2 -1 -4.5 -2t-4.5 -1z" />
    <glyph glyph-name="scircumflex" unicode="&#x15d;" horiz-adv-x="406" 
d="M200 -8q-49 0 -88 12t-61.5 30.5t-22.5 37.5q0 9 4.5 20t13 19t18.5 8q13 0 27.5 -11.5t38.5 -23t67 -11.5q50 0 67.5 17t17.5 37q0 26 -17.5 40.5t-45 23.5t-58.5 17.5t-58.5 22.5t-45 39t-17.5 66q0 34 17 67.5t54.5 55t100.5 21.5q38 0 72 -8t56 -21.5t22 -29.5
q0 -7 -5 -19.5t-13.5 -22t-21.5 -9.5q-10 0 -25 7.5t-35 14.5t-49 7t-46.5 -9.5t-25.5 -22.5t-8 -26q0 -22 17 -34t45 -20t59 -16.5t58.5 -24.5t45 -43t17.5 -72q0 -63 -45.5 -101t-129.5 -38zM90 572q-11 0 -18.5 10.5t-7.5 24.5q0 9 4.5 17.5t13.5 13.5l104 56q9 5 17 5
t17 -5l104 -55q11 -5 15 -14.5t4 -18.5q0 -13 -7 -23.5t-19 -10.5q-2 0 -4.5 1t-5.5 2l-104 56l-104 -56q-2 -1 -4.5 -2t-4.5 -1z" />
    <glyph glyph-name="Scedilla" unicode="&#x15e;" horiz-adv-x="511" 
d="M250 -8q-65 0 -115 19t-78 46.5t-28 52.5q0 12 6.5 25t17 22.5t22.5 9.5q14 0 26.5 -11.5t30.5 -27.5t45 -28t69 -12q36 0 64.5 11.5t45 35t16.5 59.5q0 38 -17.5 63t-47 42t-63.5 31t-69 30t-64 38.5t-46.5 57t-17.5 86.5q0 55 20.5 92t54.5 59t75 31.5t81 9.5
q25 0 55.5 -3.5t59.5 -12t48 -22.5t19 -34q0 -10 -5 -23.5t-14.5 -23.5t-24.5 -10q-13 0 -29 9.5t-41.5 19t-67.5 9.5q-36 0 -64.5 -10t-44.5 -29.5t-16 -51.5t17.5 -52.5t46.5 -35t63.5 -27.5t69 -30.5t64 -42.5t47 -63.5t17.5 -95.5q0 -72 -29.5 -119.5t-81 -70.5
t-117.5 -23zM277 -214q-15 0 -34.5 3t-33.5 9.5t-14 15.5q0 4 2.5 11.5t7 14t10.5 6.5q7 0 20 -7t37 -7q25 0 37.5 10t12.5 26q0 17 -13.5 26.5t-40.5 11.5l-48 5l26 98h51l-18 -64q51 -1 74 -23t23 -52q0 -17 -9.5 -37t-31 -33.5t-58.5 -13.5z" />
    <glyph glyph-name="scedilla" unicode="&#x15f;" horiz-adv-x="406" 
d="M200 -8q-49 0 -88 12t-61.5 30.5t-22.5 37.5q0 9 4.5 20t13 19t18.5 8q13 0 27.5 -11.5t38.5 -23t67 -11.5q50 0 67.5 17t17.5 37q0 26 -17.5 40.5t-45 23.5t-58.5 17.5t-58.5 22.5t-45 39t-17.5 66q0 34 17 67.5t54.5 55t100.5 21.5q38 0 72 -8t56 -21.5t22 -29.5
q0 -7 -5 -19.5t-13.5 -22t-21.5 -9.5q-10 0 -25 7.5t-35 14.5t-49 7t-46.5 -9.5t-25.5 -22.5t-8 -26q0 -22 17 -34t45 -20t59 -16.5t58.5 -24.5t45 -43t17.5 -72q0 -63 -45.5 -101t-129.5 -38zM215 -214q-15 0 -34.5 3t-33.5 9.5t-14 15.5q0 4 2.5 11.5t7 14t10.5 6.5
q7 0 20 -7t37 -7q25 0 37.5 10t12.5 26q0 17 -13.5 26.5t-40.5 11.5l-48 5l26 98h51l-18 -64q51 -1 74 -23t23 -52q0 -17 -9.5 -37t-31 -33.5t-58.5 -13.5z" />
    <glyph glyph-name="Scaron" unicode="&#x160;" horiz-adv-x="511" 
d="M250 -8q-65 0 -115 19t-78 46.5t-28 52.5q0 12 6.5 25t17 22.5t22.5 9.5q14 0 26.5 -11.5t30.5 -27.5t45 -28t69 -12q36 0 64.5 11.5t45 35t16.5 59.5q0 38 -17.5 63t-47 42t-63.5 31t-69 30t-64 38.5t-46.5 57t-17.5 86.5q0 55 20.5 92t54.5 59t75 31.5t81 9.5
q25 0 55.5 -3.5t59.5 -12t48 -22.5t19 -34q0 -10 -5 -23.5t-14.5 -23.5t-24.5 -10q-13 0 -29 9.5t-41.5 19t-67.5 9.5q-36 0 -64.5 -10t-44.5 -29.5t-16 -51.5t17.5 -52.5t46.5 -35t63.5 -27.5t69 -30.5t64 -42.5t47 -63.5t17.5 -95.5q0 -72 -29.5 -119.5t-81 -70.5
t-117.5 -23zM256 831q-9 0 -18 7l-103 75q-9 7 -13 15t-4 18q0 12 6.5 22.5t17.5 10.5q7 0 13 -6l101 -75l102 75q6 6 13 6q11 0 17.5 -10.5t6.5 -22.5q0 -10 -4 -18t-14 -15l-102 -75q-10 -7 -19 -7z" />
    <glyph glyph-name="scaron" unicode="&#x161;" horiz-adv-x="406" 
d="M200 -8q-49 0 -88 12t-61.5 30.5t-22.5 37.5q0 9 4.5 20t13 19t18.5 8q13 0 27.5 -11.5t38.5 -23t67 -11.5q50 0 67.5 17t17.5 37q0 26 -17.5 40.5t-45 23.5t-58.5 17.5t-58.5 22.5t-45 39t-17.5 66q0 34 17 67.5t54.5 55t100.5 21.5q38 0 72 -8t56 -21.5t22 -29.5
q0 -7 -5 -19.5t-13.5 -22t-21.5 -9.5q-10 0 -25 7.5t-35 14.5t-49 7t-46.5 -9.5t-25.5 -22.5t-8 -26q0 -22 17 -34t45 -20t59 -16.5t58.5 -24.5t45 -43t17.5 -72q0 -63 -45.5 -101t-129.5 -38zM203 574q-9 0 -18 7l-103 75q-9 7 -13 15t-4 18q0 12 6.5 22.5t17.5 10.5
q7 0 13 -6l101 -75l102 75q6 6 13 6q11 0 17.5 -10.5t6.5 -22.5q0 -10 -4 -18t-14 -15l-102 -75q-10 -7 -19 -7z" />
    <glyph glyph-name="uni021A" unicode="&#x162;" horiz-adv-x="506" 
d="M253 0q-20 0 -36.5 9t-16.5 26v599h-155q-16 0 -25 15t-9 34q0 18 8 33t26 15h415q19 0 27 -15t8 -32q0 -20 -8.5 -35t-26.5 -15h-154v-599q0 -17 -16.5 -26t-36.5 -9zM196 -181q-14 0 -24.5 14t-10.5 28q0 18 15 26l124 62q6 3 11 3q15 0 24.5 -13.5t9.5 -27.5
q0 -19 -16 -28l-121 -60q-3 -1 -6 -2.5t-6 -1.5z" />
    <glyph glyph-name="uni021B" unicode="&#x163;" horiz-adv-x="326" 
d="M228 0q-85 0 -130 37.5t-45 118.5v501q0 15 16.5 24.5t35.5 9.5t36 -9.5t17 -24.5v-183h122q14 0 21.5 -12t7.5 -27t-7.5 -27t-21.5 -12h-122v-240q0 -36 15.5 -51t54.5 -15h34q23 0 34.5 -13.5t11.5 -31.5q0 -17 -11.5 -31t-34.5 -14h-34zM105 -181q-14 0 -24.5 14
t-10.5 28q0 18 15 26l124 62q6 3 11 3q15 0 24.5 -13.5t9.5 -27.5q0 -19 -16 -28l-121 -60q-3 -1 -6 -2.5t-6 -1.5z" />
    <glyph glyph-name="Tcaron" unicode="&#x164;" horiz-adv-x="506" 
d="M253 0q-20 0 -36.5 9t-16.5 26v599h-155q-16 0 -25 15t-9 34q0 18 8 33t26 15h415q19 0 27 -15t8 -32q0 -20 -8.5 -35t-26.5 -15h-154v-599q0 -17 -16.5 -26t-36.5 -9zM253 831q-9 0 -18 7l-103 75q-9 7 -13 15t-4 18q0 12 6.5 22.5t17.5 10.5q7 0 13 -6l101 -75l102 75
q6 6 13 6q11 0 17.5 -10.5t6.5 -22.5q0 -10 -4 -18t-14 -15l-102 -75q-10 -7 -19 -7z" />
    <glyph glyph-name="tcaron" unicode="&#x165;" horiz-adv-x="326" 
d="M228 0q-85 0 -130 37.5t-45 118.5v501q0 15 16.5 24.5t35.5 9.5t36 -9.5t17 -24.5v-183h122q14 0 21.5 -12t7.5 -27t-7.5 -27t-21.5 -12h-122v-240q0 -36 15.5 -51t54.5 -15h34q23 0 34.5 -13.5t11.5 -31.5q0 -17 -11.5 -31t-34.5 -14h-34zM254 549q-12 0 -24 7.5
t-12 21.5q0 7 2 12l23 53q-16 8 -25.5 22t-9.5 32q0 25 17.5 42.5t41.5 17.5q25 0 42.5 -17.5t17.5 -41.5q0 -5 -2 -14t-7.5 -23.5t-15.5 -38t-25 -58.5q-3 -8 -10 -11.5t-13 -3.5z" />
    <glyph glyph-name="Tbar" unicode="&#x166;" horiz-adv-x="507" 
d="M254 0q-20 0 -36.5 9t-16.5 26v290h-101q-15 0 -22.5 12.5t-7.5 27.5t7.5 27.5t22.5 12.5h101v229h-155q-16 0 -25.5 15t-9.5 34q0 18 8.5 33t26.5 15h415q18 0 26.5 -15t8.5 -32q0 -20 -8.5 -35t-26.5 -15h-154v-229h100q15 0 22.5 -12.5t7.5 -27.5t-7.5 -27.5
t-22.5 -12.5h-100v-290q0 -17 -16.5 -26t-36.5 -9z" />
    <glyph glyph-name="tbar" unicode="&#x167;" horiz-adv-x="328" 
d="M228 0q-85 0 -130 37.5t-45 118.5v501q0 15 16.5 24.5t35.5 9.5t36 -9.5t17 -24.5v-183h122q14 0 21.5 -12t7.5 -27t-7.5 -27t-21.5 -12h-122v-84h122q14 0 21.5 -12.5t7.5 -27.5q0 -16 -7.5 -27.5t-21.5 -11.5h-122v-77q0 -36 15.5 -51t54.5 -15h34q23 0 34.5 -13.5
t11.5 -31.5q0 -17 -11.5 -31t-34.5 -14h-34z" />
    <glyph glyph-name="Utilde" unicode="&#x168;" horiz-adv-x="582" 
d="M291 -6q-64 0 -116 22t-82 71t-30 130v480q0 18 16 26t37 8q19 0 36 -8t17 -26v-480q0 -66 32 -97.5t90 -31.5q57 0 90 31.5t33 97.5v480q0 18 16 26t37 8q19 0 36 -8t17 -26v-480q0 -81 -30.5 -130t-82.5 -71t-116 -22zM371 843q-30 0 -51.5 8t-41.5 15.5t-46 7.5
q-21 0 -35 -6.5t-24 -13.5t-19 -7q-10 0 -16.5 6.5t-9 15.5t-2.5 14q0 20 9.5 32t24 19t29 10t24.5 3q28 0 49 -7.5t42 -15.5t47 -8q22 0 35 6.5t22.5 12.5t19.5 6q11 0 17 -6.5t8.5 -14.5t2.5 -13q0 -21 -9.5 -33.5t-23.5 -19.5t-28.5 -9t-23.5 -2z" />
    <glyph glyph-name="utilde" unicode="&#x169;" horiz-adv-x="513" 
d="M257 -8q-56 0 -103.5 27.5t-75.5 73t-28 96.5v250q0 13 15.5 24t37.5 11q21 0 36.5 -11t15.5 -24v-250q0 -26 13.5 -50t37 -39t51.5 -15t51 15t36.5 39t13.5 50v251q0 14 16.5 24t36.5 10q23 0 37.5 -10t14.5 -24v-251q0 -53 -28 -98t-75 -72t-103 -27zM337 586
q-30 0 -51.5 8t-41.5 15.5t-46 7.5q-21 0 -35 -6.5t-24 -13.5t-19 -7q-10 0 -16.5 6.5t-9 15.5t-2.5 14q0 20 9.5 32t24 19t29 10t24.5 3q28 0 49 -7.5t42 -15.5t47 -8q22 0 35 6.5t22.5 12.5t19.5 6q11 0 17 -6.5t8.5 -14.5t2.5 -13q0 -21 -9.5 -33.5t-23.5 -19.5t-28.5 -9
t-23.5 -2z" />
    <glyph glyph-name="Umacron" unicode="&#x16a;" horiz-adv-x="582" 
d="M291 -6q-64 0 -116 22t-82 71t-30 130v480q0 18 16 26t37 8q19 0 36 -8t17 -26v-480q0 -66 32 -97.5t90 -31.5q57 0 90 31.5t33 97.5v480q0 18 16 26t37 8q19 0 36 -8t17 -26v-480q0 -81 -30.5 -130t-82.5 -71t-116 -22zM186 867q-15 0 -24.5 10t-9.5 25q0 16 9.5 26.5
t24.5 10.5h209q13 0 24 -10.5t11 -26.5q0 -15 -11 -25t-24 -10h-209z" />
    <glyph glyph-name="umacron" unicode="&#x16b;" horiz-adv-x="513" 
d="M257 -8q-56 0 -103.5 27.5t-75.5 73t-28 96.5v250q0 13 15.5 24t37.5 11q21 0 36.5 -11t15.5 -24v-250q0 -26 13.5 -50t37 -39t51.5 -15t51 15t36.5 39t13.5 50v251q0 14 16.5 24t36.5 10q23 0 37.5 -10t14.5 -24v-251q0 -53 -28 -98t-75 -72t-103 -27zM151 611
q-15 0 -24.5 10t-9.5 25q0 16 9.5 26.5t24.5 10.5h209q13 0 24 -10.5t11 -26.5q0 -15 -11 -25t-24 -10h-209z" />
    <glyph glyph-name="Ubreve" unicode="&#x16c;" horiz-adv-x="582" 
d="M291 -6q-64 0 -116 22t-82 71t-30 130v480q0 18 16 26t37 8q19 0 36 -8t17 -26v-480q0 -66 32 -97.5t90 -31.5q57 0 90 31.5t33 97.5v480q0 18 16 26t37 8q19 0 36 -8t17 -26v-480q0 -81 -30.5 -130t-82.5 -71t-116 -22zM291 839q-43 0 -78.5 29t-45.5 71q-3 12 4 19
t18 7h13q10 0 16 -5.5t9 -15.5q6 -25 24.5 -40.5t39.5 -15.5q22 0 39.5 15.5t23.5 40.5q3 10 9 15.5t16 5.5h13q11 0 18.5 -7t4.5 -19q-11 -42 -46.5 -71t-77.5 -29z" />
    <glyph glyph-name="ubreve" unicode="&#x16d;" horiz-adv-x="513" 
d="M257 -8q-56 0 -103.5 27.5t-75.5 73t-28 96.5v250q0 13 15.5 24t37.5 11q21 0 36.5 -11t15.5 -24v-250q0 -26 13.5 -50t37 -39t51.5 -15t51 15t36.5 39t13.5 50v251q0 14 16.5 24t36.5 10q23 0 37.5 -10t14.5 -24v-251q0 -53 -28 -98t-75 -72t-103 -27zM257 583
q-43 0 -78.5 29t-45.5 71q-3 12 4 19t18 7h13q10 0 16 -5.5t9 -15.5q6 -25 24.5 -40.5t39.5 -15.5q22 0 39.5 15.5t23.5 40.5q3 10 9 15.5t16 5.5h13q11 0 18.5 -7t4.5 -19q-11 -42 -46.5 -71t-77.5 -29z" />
    <glyph glyph-name="Uring" unicode="&#x16e;" horiz-adv-x="582" 
d="M291 -6q-64 0 -116 22t-82 71t-30 130v480q0 18 16 26t37 8q19 0 36 -8t17 -26v-480q0 -66 32 -97.5t90 -31.5q57 0 90 31.5t33 97.5v480q0 18 16 26t37 8q19 0 36 -8t17 -26v-480q0 -81 -30.5 -130t-82.5 -71t-116 -22zM290 817q-25 0 -47 13.5t-35 36.5t-13 48
q0 26 12.5 48t34.5 36t49 14q25 0 47 -13.5t35.5 -36t13.5 -47.5q0 -26 -13.5 -48.5t-35.5 -36.5t-48 -14zM291 861q21 0 35.5 17t14.5 37q0 19 -14.5 34.5t-35.5 15.5q-22 0 -37 -16t-15 -34q0 -19 15.5 -36.5t36.5 -17.5z" />
    <glyph glyph-name="uring" unicode="&#x16f;" horiz-adv-x="513" 
d="M257 -8q-56 0 -103.5 27.5t-75.5 73t-28 96.5v250q0 13 15.5 24t37.5 11q21 0 36.5 -11t15.5 -24v-250q0 -26 13.5 -50t37 -39t51.5 -15t51 15t36.5 39t13.5 50v251q0 14 16.5 24t36.5 10q23 0 37.5 -10t14.5 -24v-251q0 -53 -28 -98t-75 -72t-103 -27zM256 561
q-25 0 -47 13.5t-35 36.5t-13 48q0 26 12.5 48t34.5 36t49 14q25 0 47 -13.5t35.5 -36t13.5 -47.5q0 -26 -13.5 -48.5t-35.5 -36.5t-48 -14zM257 605q21 0 35.5 17t14.5 37q0 19 -14.5 34.5t-35.5 15.5q-22 0 -37 -16t-15 -34q0 -19 15.5 -36.5t36.5 -17.5z" />
    <glyph glyph-name="Uhungarumlaut" unicode="&#x170;" horiz-adv-x="582" 
d="M291 -6q-64 0 -116 22t-82 71t-30 130v480q0 18 16 26t37 8q19 0 36 -8t17 -26v-480q0 -66 32 -97.5t90 -31.5q57 0 90 31.5t33 97.5v480q0 18 16 26t37 8q19 0 36 -8t17 -26v-480q0 -81 -30.5 -130t-82.5 -71t-116 -22zM338 834q-13 0 -23.5 10.5t-10.5 22.5q0 9 7 15
l89 81q3 4 7 5t8 1q13 0 23 -10.5t10 -21.5t-8 -18l-86 -78q-6 -7 -16 -7zM184 834q-13 0 -24 10.5t-11 22.5q0 9 7 15l89 81q4 4 8 5t8 1q12 0 22 -10.5t10 -21.5t-8 -18l-85 -78q-7 -7 -16 -7z" />
    <glyph glyph-name="uhungarumlaut" unicode="&#x171;" horiz-adv-x="513" 
d="M257 -8q-56 0 -103.5 27.5t-75.5 73t-28 96.5v250q0 13 15.5 24t37.5 11q21 0 36.5 -11t15.5 -24v-250q0 -26 13.5 -50t37 -39t51.5 -15t51 15t36.5 39t13.5 50v251q0 14 16.5 24t36.5 10q23 0 37.5 -10t14.5 -24v-251q0 -53 -28 -98t-75 -72t-103 -27zM304 577
q-13 0 -23.5 10.5t-10.5 22.5q0 9 7 15l89 81q3 4 7 5t8 1q13 0 23 -10.5t10 -21.5t-8 -18l-86 -78q-6 -7 -16 -7zM150 577q-13 0 -24 10.5t-11 22.5q0 9 7 15l89 81q4 4 8 5t8 1q12 0 22 -10.5t10 -21.5t-8 -18l-85 -78q-7 -7 -16 -7z" />
    <glyph glyph-name="Uogonek" unicode="&#x172;" horiz-adv-x="582" 
d="M291 -6q-64 0 -116 22t-82 71t-30 130v480q0 18 16 26t37 8q19 0 36 -8t17 -26v-480q0 -66 32 -97.5t90 -31.5q57 0 90 31.5t33 97.5v480q0 18 16 26t37 8q19 0 36 -8t17 -26v-480q0 -81 -30.5 -130t-82.5 -71t-116 -22zM355 -208q-33 0 -57.5 9.5t-38 29t-13.5 45.5
q0 42 24 81t65 67l42 -18q-33 -23 -54.5 -55.5t-21.5 -65.5q0 -23 15 -34.5t45 -11.5q11 0 16.5 -7.5t5.5 -17.5q0 -9 -5.5 -15.5t-22.5 -6.5z" />
    <glyph glyph-name="uogonek" unicode="&#x173;" horiz-adv-x="513" 
d="M257 -8q-56 0 -103.5 27.5t-75.5 73t-28 96.5v250q0 13 15.5 24t37.5 11q21 0 36.5 -11t15.5 -24v-250q0 -26 13.5 -50t37 -39t51.5 -15t51 15t36.5 39t13.5 50v251q0 14 16.5 24t36.5 10q23 0 37.5 -10t14.5 -24v-251q0 -53 -28 -98t-75 -72t-103 -27zM309 -208
q-33 0 -57.5 9.5t-38 29t-13.5 45.5q0 42 24 81t65 67l42 -18q-33 -23 -54.5 -55.5t-21.5 -65.5q0 -23 15 -34.5t45 -11.5q11 0 16.5 -7.5t5.5 -17.5q0 -9 -5.5 -15.5t-22.5 -6.5z" />
    <glyph glyph-name="Wcircumflex" unicode="&#x174;" horiz-adv-x="845" 
d="M280 -6q-22 0 -42 9t-26 27l-198 648q-1 5 -1 10q0 13 10 22.5t25.5 15t30.5 5.5q13 0 23.5 -5t13.5 -17l163 -570l91 358q4 16 19.5 23.5t32.5 7.5q19 0 34 -7.5t19 -23.5l91 -358l163 570q4 12 14 17t23 5q15 0 30 -5.5t25.5 -15t10.5 -22.5q0 -5 -2 -10l-197 -648
q-6 -18 -25.5 -27t-42.5 -9q-22 0 -42 9t-24 27l-77 302l-75 -302q-5 -18 -24.5 -27t-42.5 -9zM309 829q-11 0 -18.5 10.5t-7.5 24.5q0 9 4.5 17.5t13.5 13.5l104 56q9 5 17 5t17 -5l104 -55q11 -5 15 -14.5t4 -18.5q0 -13 -7 -23.5t-19 -10.5q-2 0 -4.5 1t-5.5 2l-104 56
l-104 -56q-2 -1 -4.5 -2t-4.5 -1z" />
    <glyph glyph-name="wcircumflex" unicode="&#x175;" horiz-adv-x="682" 
d="M210 -10q-14 0 -25 5t-16 18l-155 404q-2 5 -3.5 9.5t-1.5 7.5q0 13 11 22.5t26.5 15.5t29.5 6q11 0 20 -4.5t12 -14.5l111 -311l85 276q5 15 15 19t22 4q13 0 23 -4t15 -19l83 -278l112 313q6 19 31 19q14 0 29.5 -5.5t26.5 -15.5t11 -24q0 -3 -1 -8t-3 -8l-155 -406
q-4 -12 -15.5 -16.5t-25.5 -4.5q-16 0 -27.5 5t-15.5 15l-88 258l-86 -255q-4 -12 -16.5 -17.5t-28.5 -5.5zM228 572q-11 0 -18.5 10.5t-7.5 24.5q0 9 4.5 17.5t13.5 13.5l104 56q9 5 17 5t17 -5l104 -55q11 -5 15 -14.5t4 -18.5q0 -13 -7 -23.5t-19 -10.5q-2 0 -4.5 1
t-5.5 2l-104 56l-104 -56q-2 -1 -4.5 -2t-4.5 -1z" />
    <glyph glyph-name="Ycircumflex" unicode="&#x176;" horiz-adv-x="556" 
d="M278 0q-20 0 -36.5 9t-16.5 26v253q0 6 -3 11l-207 373q-2 5 -2.5 8.5t-0.5 6.5q0 13 11 22.5t26.5 15.5t29.5 6q13 0 20.5 -6t13.5 -18l165 -317l164 317q7 12 14.5 18t20.5 6q14 0 29.5 -6t26.5 -15.5t11 -22.5q0 -3 -0.5 -6.5t-3.5 -8.5l-206 -373q-3 -5 -3 -11v-253
q0 -17 -16.5 -26t-36.5 -9zM165 829q-11 0 -18.5 10.5t-7.5 24.5q0 9 4.5 17.5t13.5 13.5l104 56q9 5 17 5t17 -5l104 -55q11 -5 15 -14.5t4 -18.5q0 -13 -7 -23.5t-19 -10.5q-2 0 -4.5 1t-5.5 2l-104 56l-104 -56q-2 -1 -4.5 -2t-4.5 -1z" />
    <glyph glyph-name="ycircumflex" unicode="&#x177;" horiz-adv-x="454" 
d="M57 -225q-20 0 -34 8.5t-14 36.5q0 18 6 31.5t22 13.5q19 0 41.5 9.5t44 30t37 51.5t21.5 73l-169 388q-4 7 -4 14q0 13 11.5 24.5t27.5 18.5t30 7q10 0 19.5 -4.5t12.5 -14.5l126 -325l109 325q3 10 12 14.5t18 4.5q12 0 28.5 -7t29 -18.5t12.5 -26.5q0 -8 -3 -12
l-150 -391q-16 -43 -33 -87.5t-41.5 -81.5t-63 -59.5t-96.5 -22.5zM114 572q-11 0 -18.5 10.5t-7.5 24.5q0 9 4.5 17.5t13.5 13.5l104 56q9 5 17 5t17 -5l104 -55q11 -5 15 -14.5t4 -18.5q0 -13 -7 -23.5t-19 -10.5q-2 0 -4.5 1t-5.5 2l-104 56l-104 -56q-2 -1 -4.5 -2
t-4.5 -1z" />
    <glyph glyph-name="Ydieresis" unicode="&#x178;" horiz-adv-x="556" 
d="M278 0q-20 0 -36.5 9t-16.5 26v253q0 6 -3 11l-207 373q-2 5 -2.5 8.5t-0.5 6.5q0 13 11 22.5t26.5 15.5t29.5 6q13 0 20.5 -6t13.5 -18l165 -317l164 317q7 12 14.5 18t20.5 6q14 0 29.5 -6t26.5 -15.5t11 -22.5q0 -3 -0.5 -6.5t-3.5 -8.5l-206 -373q-3 -5 -3 -11v-253
q0 -17 -16.5 -26t-36.5 -9zM347 830q-19 0 -32 14t-13 33t13 32.5t32 13.5t32 -13.5t13 -32.5t-13 -33t-32 -14zM208 830q-19 0 -32.5 14t-13.5 33t13.5 32.5t32.5 13.5t31.5 -13.5t12.5 -32.5t-12.5 -33t-31.5 -14z" />
    <glyph glyph-name="Zacute" unicode="&#x179;" horiz-adv-x="506" 
d="M50 0q-17 0 -25 9t-8 22q0 18 11 37l310 569h-271q-16 0 -25.5 14t-9.5 33q0 17 8.5 32t26.5 15h373q17 0 25.5 -8.5t8.5 -21.5q0 -17 -12 -39l-310 -568h303q17 0 26 -15t9 -32t-9 -32t-26 -15h-405zM212 824q-14 0 -24.5 13.5t-10.5 27.5q0 18 15 26l124 63q6 2 11 2
q15 0 24.5 -13.5t9.5 -27.5q0 -19 -16 -27l-121 -61l-6 -2t-6 -1z" />
    <glyph glyph-name="zacute" unicode="&#x17a;" horiz-adv-x="422" 
d="M59 0q-20 0 -29 12t-9 26q0 12 5.5 23t12.5 19l214 307h-190q-14 0 -23.5 13t-9.5 31t9 30.5t24 12.5h290q14 0 24.5 -9t10.5 -28q0 -22 -16 -43l-215 -307h213q13 0 23 -12.5t10 -31.5q0 -17 -9 -30t-24 -13h-311zM174 568q-14 0 -24.5 13.5t-10.5 27.5q0 18 15 26
l124 63q6 2 11 2q15 0 24.5 -13.5t9.5 -27.5q0 -19 -16 -27l-121 -61l-6 -2t-6 -1z" />
    <glyph glyph-name="Zdotaccent" unicode="&#x17b;" horiz-adv-x="506" 
d="M50 0q-17 0 -25 9t-8 22q0 18 11 37l310 569h-271q-16 0 -25.5 14t-9.5 33q0 17 8.5 32t26.5 15h373q17 0 25.5 -8.5t8.5 -21.5q0 -17 -12 -39l-310 -568h303q17 0 26 -15t9 -32t-9 -32t-26 -15h-405zM248 831q-19 0 -33 14.5t-14 33.5t14 33.5t33 14.5q20 0 33.5 -14.5
t13.5 -33.5t-13.5 -33.5t-33.5 -14.5z" />
    <glyph glyph-name="zdotaccent" unicode="&#x17c;" horiz-adv-x="422" 
d="M59 0q-20 0 -29 12t-9 26q0 12 5.5 23t12.5 19l214 307h-190q-14 0 -23.5 13t-9.5 31t9 30.5t24 12.5h290q14 0 24.5 -9t10.5 -28q0 -22 -16 -43l-215 -307h213q13 0 23 -12.5t10 -31.5q0 -17 -9 -30t-24 -13h-311zM211 574q-19 0 -33 14.5t-14 33.5t14 33.5t33 14.5
q20 0 33.5 -14.5t13.5 -33.5t-13.5 -33.5t-33.5 -14.5z" />
    <glyph glyph-name="Zcaron" unicode="&#x17d;" horiz-adv-x="506" 
d="M50 0q-17 0 -25 9t-8 22q0 18 11 37l310 569h-271q-16 0 -25.5 14t-9.5 33q0 17 8.5 32t26.5 15h373q17 0 25.5 -8.5t8.5 -21.5q0 -17 -12 -39l-310 -568h303q17 0 26 -15t9 -32t-9 -32t-26 -15h-405zM248 831q-9 0 -18 7l-103 75q-9 7 -13 15t-4 18q0 12 6.5 22.5
t17.5 10.5q7 0 13 -6l101 -75l102 75q6 6 13 6q11 0 17.5 -10.5t6.5 -22.5q0 -10 -4 -18t-14 -15l-102 -75q-10 -7 -19 -7z" />
    <glyph glyph-name="zcaron" unicode="&#x17e;" horiz-adv-x="422" 
d="M59 0q-20 0 -29 12t-9 26q0 12 5.5 23t12.5 19l214 307h-190q-14 0 -23.5 13t-9.5 31t9 30.5t24 12.5h290q14 0 24.5 -9t10.5 -28q0 -22 -16 -43l-215 -307h213q13 0 23 -12.5t10 -31.5q0 -17 -9 -30t-24 -13h-311zM211 574q-9 0 -18 7l-103 75q-9 7 -13 15t-4 18
q0 12 6.5 22.5t17.5 10.5q7 0 13 -6l101 -75l102 75q6 6 13 6q11 0 17.5 -10.5t6.5 -22.5q0 -10 -4 -18t-14 -15l-102 -75q-10 -7 -19 -7z" />
    <glyph glyph-name="florin" unicode="&#x192;" horiz-adv-x="389" 
d="M-21 -137q-16 0 -24.5 14t-8.5 32q0 22 11 37.5t27 15.5h22q17 0 28.5 15t19.5 39.5t11 52.5l69 504q8 53 39 97.5t78 71t99 26.5h40q14 0 23 -13t9 -32q0 -21 -11 -34.5t-26 -13.5h-37q-29 0 -52 -13.5t-37.5 -36.5t-19.5 -52l-20 -139h132q14 0 21.5 -12t7.5 -26
q0 -16 -8.5 -28.5t-22.5 -12.5h-141l-40 -286q-8 -53 -27 -100.5t-53 -76.5t-85 -29h-24z" />
    <glyph glyph-name="Ohorn" unicode="&#x1a0;" horiz-adv-x="566" 
d="M283 -6q-64 0 -114.5 22t-80 71t-29.5 130v291q0 81 29.5 130t80 71t114.5 22q63 0 114 -22t81 -71t30 -130v-291q0 -81 -30 -130t-81 -71t-114 -22zM283 88q55 0 87 31.5t32 97.5v291q0 66 -31.5 97.5t-87.5 31.5t-87.5 -31.5t-31.5 -97.5v-291q0 -66 31.5 -97.5
t87.5 -31.5zM307 660v72q44 0 67.5 16.5t23.5 48.5q0 15 8.5 29t27.5 14q22 0 29 -15t7 -28q0 -38 -16 -69t-51.5 -49.5t-95.5 -18.5z" />
    <glyph glyph-name="ohorn" unicode="&#x1a1;" horiz-adv-x="486" 
d="M242 -8q-54 0 -101 28t-75.5 73.5t-28.5 97.5v92q0 53 27.5 98t75 72t103.5 27t103 -26.5t75.5 -71t28.5 -99.5v-92q0 -51 -28.5 -97t-76 -74t-103.5 -28zM243 85q28 0 51 15t37 39.5t14 51.5v92q0 26 -14 50t-37 39t-51 15q-29 0 -51.5 -15t-36 -39t-13.5 -50v-92
q0 -27 13.5 -51.5t36.5 -39.5t51 -15zM288 403v72q44 0 67.5 16.5t23.5 48.5q0 15 8.5 29t27.5 14q22 0 29 -15t7 -28q0 -38 -16 -69t-51.5 -49.5t-95.5 -18.5z" />
    <glyph glyph-name="Uhorn" unicode="&#x1af;" horiz-adv-x="582" 
d="M291 -6q-64 0 -116 22t-82 71t-30 130v480q0 18 16 26t37 8q19 0 36 -8t17 -26v-480q0 -66 32 -97.5t90 -31.5q57 0 90 31.5t33 97.5v480q0 18 16 26t37 8q19 0 36 -8t17 -26v-480q0 -81 -30.5 -130t-82.5 -71t-116 -22zM466 660v72q44 0 67.5 16.5t23.5 48.5
q0 15 8.5 29t27.5 14q22 0 29 -15t7 -28q0 -38 -16 -69t-51.5 -49.5t-95.5 -18.5z" />
    <glyph glyph-name="uhorn" unicode="&#x1b0;" horiz-adv-x="513" 
d="M257 -8q-56 0 -103.5 27.5t-75.5 73t-28 96.5v250q0 13 15.5 24t37.5 11q21 0 36.5 -11t15.5 -24v-250q0 -26 13.5 -50t37 -39t51.5 -15t51 15t36.5 39t13.5 50v251q0 14 16.5 24t36.5 10q23 0 37.5 -10t14.5 -24v-251q0 -53 -28 -98t-75 -72t-103 -27zM410 403v72
q44 0 67.5 16.5t23.5 48.5q0 15 8.5 29t27.5 14q22 0 29 -15t7 -28q0 -38 -16 -69t-51.5 -49.5t-95.5 -18.5z" />
    <glyph glyph-name="AEacute" unicode="&#x1fc;" horiz-adv-x="760" 
d="M110 0q-26 0 -36.5 11.5t-10.5 28.5v468q0 81 29 130t79 71t111 22h424q18 0 26 -15t8 -31q0 -19 -9 -33.5t-25 -14.5h-231v-229h130q16 0 25 -13t9 -30q0 -14 -8 -27.5t-26 -13.5h-130v-230h231q16 0 25 -14t9 -34q0 -16 -8 -31t-26 -15h-290q-17 0 -32 9t-15 26v289
h-206v-284q0 -17 -9 -28.5t-44 -11.5zM163 408h206v229h-87q-56 0 -87.5 -31.5t-31.5 -97.5v-100zM377 824q-14 0 -24.5 13.5t-10.5 27.5q0 18 15 26l124 63q6 2 11 2q15 0 24.5 -13.5t9.5 -27.5q0 -19 -16 -27l-121 -61l-6 -2t-6 -1z" />
    <glyph glyph-name="aeacute" unicode="&#x1fd;" horiz-adv-x="741" 
d="M173 -8q-39 0 -73 14t-54.5 43.5t-20.5 74.5q0 57 29.5 88t81.5 43t121 12h45v18q0 26 -9.5 51t-31.5 41.5t-59 16.5q-36 0 -56.5 -7.5t-32.5 -15.5t-22 -8q-18 0 -28 18t-10 36t24 32.5t59 23t69 8.5q57 0 95 -23.5t60 -60.5q26 37 65 60t85 23q37 0 72.5 -12
t64.5 -36.5t46 -60t17 -82.5q0 -37 -11 -54t-31.5 -21.5t-48.5 -4.5h-211v-23q0 -50 36 -79.5t92 -29.5q36 0 58 10t37 19t28 9t21.5 -7.5t14 -18.5t5.5 -21q0 -17 -23.5 -34.5t-62 -29.5t-85.5 -12q-57 0 -105 25.5t-77 72.5q-34 -48 -81 -73t-93 -25zM195 72q27 0 51 15.5
t40 38.5t16 46v37h-26q-38 0 -71.5 -4.5t-54 -20t-20.5 -48.5q0 -32 18.5 -48t46.5 -16zM408 274h166q23 0 30 6t7 23q0 27 -13.5 49.5t-36.5 35t-52 12.5q-27 0 -50 -11.5t-37 -33t-14 -48.5v-33zM320 576q-14 0 -24.5 13.5t-10.5 27.5q0 18 15 26l124 63q6 2 11 2
q15 0 24.5 -13.5t9.5 -27.5q0 -19 -16 -27l-121 -61l-6 -2t-6 -1z" />
    <glyph glyph-name="Oslashacute" unicode="&#x1fe;" horiz-adv-x="566" 
d="M283 -6q-64 0 -114.5 22t-80 71t-29.5 130v291q0 81 29.5 130t80 71t114.5 22q63 0 114 -22t81 -71t30 -130v-291q0 -81 -30 -130t-81 -71t-114 -22zM283 88q55 0 87 31.5t32 97.5v291q0 66 -31.5 97.5t-87.5 31.5t-87.5 -31.5t-31.5 -97.5v-291q0 -66 31.5 -97.5
t87.5 -31.5zM107 -38q-17 0 -28 11.5t-11 25.5q0 8 4 15l368 735q8 18 29 18q15 0 28.5 -10.5t13.5 -27.5q0 -9 -3 -16l-367 -732q-4 -9 -13.5 -14t-20.5 -5zM246 824q-14 0 -24.5 13.5t-10.5 27.5q0 18 15 26l124 63q6 2 11 2q15 0 24.5 -13.5t9.5 -27.5q0 -19 -16 -27
l-121 -61l-6 -2t-6 -1z" />
    <glyph glyph-name="oslashacute" unicode="&#x1ff;" horiz-adv-x="486" 
d="M242 -8q-54 0 -101 28t-75.5 73.5t-28.5 97.5v92q0 53 27.5 98t75 72t103.5 27t103 -26.5t75.5 -71t28.5 -99.5v-92q0 -51 -28.5 -97t-76 -74t-103.5 -28zM243 85q28 0 51 15t37 39.5t14 51.5v92q0 26 -14 50t-37 39t-51 15q-29 0 -51.5 -15t-36 -39t-13.5 -50v-92
q0 -27 13.5 -51.5t36.5 -39.5t51 -15zM81 -32q-9 0 -17 7t-8 17q0 7 5 14l33 50l256 395l32 48q7 11 18 11t19 -8t8 -19q0 -8 -6 -17l-31 -46l-259 -395l-33 -48q-5 -9 -17 -9zM206 568q-14 0 -24.5 13.5t-10.5 27.5q0 18 15 26l124 63q6 2 11 2q15 0 24.5 -13.5t9.5 -27.5
q0 -19 -16 -27l-121 -61l-6 -2t-6 -1z" />
    <glyph glyph-name="uni0218" unicode="&#x218;" horiz-adv-x="511" 
d="M250 -8q-65 0 -115 19t-78 46.5t-28 52.5q0 12 6.5 25t17 22.5t22.5 9.5q14 0 26.5 -11.5t30.5 -27.5t45 -28t69 -12q36 0 64.5 11.5t45 35t16.5 59.5q0 38 -17.5 63t-47 42t-63.5 31t-69 30t-64 38.5t-46.5 57t-17.5 86.5q0 55 20.5 92t54.5 59t75 31.5t81 9.5
q25 0 55.5 -3.5t59.5 -12t48 -22.5t19 -34q0 -10 -5 -23.5t-14.5 -23.5t-24.5 -10q-13 0 -29 9.5t-41.5 19t-67.5 9.5q-36 0 -64.5 -10t-44.5 -29.5t-16 -51.5t17.5 -52.5t46.5 -35t63.5 -27.5t69 -30.5t64 -42.5t47 -63.5t17.5 -95.5q0 -72 -29.5 -119.5t-81 -70.5
t-117.5 -23zM209 -181q-14 0 -24.5 14t-10.5 28q0 18 15 26l124 62q6 3 11 3q15 0 24.5 -13.5t9.5 -27.5q0 -19 -16 -28l-121 -60q-3 -1 -6 -2.5t-6 -1.5z" />
    <glyph glyph-name="uni0219" unicode="&#x219;" horiz-adv-x="406" 
d="M200 -8q-49 0 -88 12t-61.5 30.5t-22.5 37.5q0 9 4.5 20t13 19t18.5 8q13 0 27.5 -11.5t38.5 -23t67 -11.5q50 0 67.5 17t17.5 37q0 26 -17.5 40.5t-45 23.5t-58.5 17.5t-58.5 22.5t-45 39t-17.5 66q0 34 17 67.5t54.5 55t100.5 21.5q38 0 72 -8t56 -21.5t22 -29.5
q0 -7 -5 -19.5t-13.5 -22t-21.5 -9.5q-10 0 -25 7.5t-35 14.5t-49 7t-46.5 -9.5t-25.5 -22.5t-8 -26q0 -22 17 -34t45 -20t59 -16.5t58.5 -24.5t45 -43t17.5 -72q0 -63 -45.5 -101t-129.5 -38zM148 -181q-14 0 -24.5 14t-10.5 28q0 18 15 26l124 62q6 3 11 3
q15 0 24.5 -13.5t9.5 -27.5q0 -19 -16 -28l-121 -60q-3 -1 -6 -2.5t-6 -1.5z" />
    <glyph glyph-name="uni0237" unicode="&#x237;" horiz-adv-x="215" 
d="M16 -225q-31 0 -42.5 14t-11.5 30q0 21 12 33.5t29 12.5q23 0 34.5 12.5t14.5 35t3 51.5v476q0 15 14.5 24.5t36.5 9.5q23 0 38.5 -9.5t15.5 -24.5v-476q0 -55 -15.5 -98t-47.5 -67t-81 -24z" />
    <glyph glyph-name="uni0259" unicode="&#x259;" horiz-adv-x="475" 
d="M229 -8q-52 0 -97.5 23.5t-73.5 65.5t-28 96q0 42 13.5 60t34.5 22t43 4h212v23q0 50 -36 79.5t-94 29.5q-36 0 -58 -9.5t-36 -19t-28 -9.5q-12 0 -21.5 8t-14.5 19t-5 20q0 15 20.5 33t57.5 30.5t88 12.5q68 0 120 -25t82 -69.5t30 -104.5v-95q0 -53 -28.5 -97
t-75.5 -70.5t-105 -26.5zM231 72q28 0 51 12t37 33.5t14 48.5v32h-166q-22 0 -30 -6t-8 -24q0 -26 13.5 -48.5t37 -35t51.5 -12.5z" />
    <glyph glyph-name="circumflex" unicode="&#x2c6;" horiz-adv-x="279" 
d="M26 582q-11 0 -18.5 10.5t-7.5 24.5q0 9 4.5 17.5t13.5 13.5l104 56q9 5 17 5t17 -5l104 -55q11 -5 15 -14.5t4 -18.5q0 -13 -7 -23.5t-19 -10.5q-2 0 -4.5 1t-5.5 2l-104 56l-104 -56q-2 -1 -4.5 -2t-4.5 -1z" />
    <glyph glyph-name="caron" unicode="&#x2c7;" horiz-adv-x="278" 
d="M138 584q-9 0 -18 7l-103 75q-9 7 -13 15t-4 18q0 12 6.5 22.5t17.5 10.5q7 0 13 -6l101 -75l102 75q6 6 13 6q11 0 17.5 -10.5t6.5 -22.5q0 -10 -4 -18t-14 -15l-102 -75q-10 -7 -19 -7z" />
    <glyph glyph-name="breve" unicode="&#x2d8;" horiz-adv-x="249" 
d="M125 592q-43 0 -78.5 29t-45.5 71q-3 12 4 19t18 7h13q10 0 16 -5.5t9 -15.5q6 -25 24.5 -40.5t39.5 -15.5q22 0 39.5 15.5t23.5 40.5q3 10 9 15.5t16 5.5h13q11 0 18.5 -7t4.5 -19q-11 -42 -46.5 -71t-77.5 -29z" />
    <glyph glyph-name="dotaccent" unicode="&#x2d9;" horiz-adv-x="204" 
d="M102 584q-19 0 -33 14.5t-14 33.5t14 33.5t33 14.5q20 0 33.5 -14.5t13.5 -33.5t-13.5 -33.5t-33.5 -14.5z" />
    <glyph glyph-name="uni030A" unicode="&#x2da;" 
d="M95 573q-25 0 -47 13.5t-35 36.5t-13 48q0 26 12.5 48t34.5 36t49 14q25 0 47 -13.5t35.5 -36t13.5 -47.5q0 -26 -13.5 -48.5t-35.5 -36.5t-48 -14zM96 617q21 0 35.5 17t14.5 37q0 19 -14.5 34.5t-35.5 15.5q-22 0 -37 -16t-15 -34q0 -19 15.5 -36.5t36.5 -17.5z" />
    <glyph glyph-name="ogonek" unicode="&#x2db;" horiz-adv-x="137" 
d="M109 -208q-33 0 -57.5 9.5t-38 29t-13.5 45.5q0 42 24 81t65 67l42 -18q-33 -23 -54.5 -55.5t-21.5 -65.5q0 -23 15 -34.5t45 -11.5q11 0 16.5 -7.5t5.5 -17.5q0 -9 -5.5 -15.5t-22.5 -6.5z" />
    <glyph glyph-name="tilde" unicode="&#x2dc;" horiz-adv-x="330" 
d="M245 596q-30 0 -51.5 8t-41.5 15.5t-46 7.5q-21 0 -35 -6.5t-24 -13.5t-19 -7q-10 0 -16.5 6.5t-9 15.5t-2.5 14q0 20 9.5 32t24 19t29 10t24.5 3q28 0 49 -7.5t42 -15.5t47 -8q22 0 35 6.5t22.5 12.5t19.5 6q11 0 17 -6.5t8.5 -14.5t2.5 -13q0 -21 -9.5 -33.5
t-23.5 -19.5t-28.5 -9t-23.5 -2z" />
    <glyph glyph-name="uni030B" unicode="&#x2dd;" 
d="M189 575q-13 0 -23.5 10.5t-10.5 22.5q0 9 7 15l89 81q3 4 7 5t8 1q13 0 23 -10.5t10 -21.5t-8 -18l-86 -78q-6 -7 -16 -7zM35 575q-13 0 -24 10.5t-11 22.5q0 9 7 15l89 81q4 4 8 5t8 1q12 0 22 -10.5t10 -21.5t-8 -18l-85 -78q-7 -7 -16 -7z" />
    <glyph glyph-name="gravecomb" unicode="&#x300;" 
d="M150 577q-4 0 -7 1l-6 2l-121 61q-16 8 -16 27q0 14 9.5 27.5t24.5 13.5q5 0 11 -2l124 -63q15 -8 15 -26q0 -14 -9.5 -27.5t-24.5 -13.5z" />
    <glyph glyph-name="acutecomb" unicode="&#x301;" 
d="M35 577q-14 0 -24.5 13.5t-10.5 27.5q0 18 15 26l124 63q6 2 11 2q15 0 24.5 -13.5t9.5 -27.5q0 -19 -16 -27l-121 -61l-6 -2t-6 -1z" />
    <glyph glyph-name="uni0302" unicode="&#x302;" 
d="M26 582q-11 0 -18.5 10.5t-7.5 24.5q0 9 4.5 17.5t13.5 13.5l104 56q9 5 17 5t17 -5l104 -55q11 -5 15 -14.5t4 -18.5q0 -13 -7 -23.5t-19 -10.5q-2 0 -4.5 1t-5.5 2l-104 56l-104 -56q-2 -1 -4.5 -2t-4.5 -1z" />
    <glyph glyph-name="tildecomb" unicode="&#x303;" 
d="M245 596q-30 0 -51.5 8t-41.5 15.5t-46 7.5q-21 0 -35 -6.5t-24 -13.5t-19 -7q-10 0 -16.5 6.5t-9 15.5t-2.5 14q0 20 9.5 32t24 19t29 10t24.5 3q28 0 49 -7.5t42 -15.5t47 -8q22 0 35 6.5t22.5 12.5t19.5 6q11 0 17 -6.5t8.5 -14.5t2.5 -13q0 -21 -9.5 -33.5
t-23.5 -19.5t-28.5 -9t-23.5 -2z" />
    <glyph glyph-name="uni0306" unicode="&#x306;" 
d="M127 592q-43 0 -78.5 29t-45.5 71q-3 12 4 19t18 7h13q10 0 16 -5.5t9 -15.5q6 -25 24.5 -40.5t39.5 -15.5q22 0 39.5 15.5t23.5 40.5q3 10 9 15.5t16 5.5h13q11 0 18.5 -7t4.5 -19q-11 -42 -46.5 -71t-77.5 -29z" />
    <glyph glyph-name="uni0307" unicode="&#x307;" 
d="M102 584q-19 0 -33 14.5t-14 33.5t14 33.5t33 14.5q20 0 33.5 -14.5t13.5 -33.5t-13.5 -33.5t-33.5 -14.5z" />
    <glyph glyph-name="uni0308" unicode="&#x308;" 
d="M185 583q-19 0 -32 14t-13 33t13 32.5t32 13.5t32 -13.5t13 -32.5t-13 -33t-32 -14zM46 583q-19 0 -32.5 14t-13.5 33t13.5 32.5t32.5 13.5t31.5 -13.5t12.5 -32.5t-12.5 -33t-31.5 -14z" />
    <glyph glyph-name="hookabovecomb" unicode="&#x309;" 
d="M107 688q14 12 31 19.5t39 7.5q33 0 50.5 -12t24.5 -28.5t7 -31.5t-6 -27.5t-18 -25.5q-7 -7 -11.5 -14t-4.5 -14q-1 -9 -8 -15t-17 -6t-17 6t-7 15t3.5 18t10.5 18q10 12 17 21.5t7 18.5q0 12 -9.5 19.5t-22.5 7.5t-22.5 -5.5t-17.5 -11.5q-7 -5 -16 -6t-18 9
q-8 9 -5.5 19.5t10.5 17.5z" />
    <glyph glyph-name="uni030C" unicode="&#x30c;" 
d="M143 584q-9 0 -18 7l-103 75q-9 7 -13 15t-4 18q0 12 6.5 22.5t17.5 10.5q7 0 13 -6l101 -75l102 75q6 6 13 6q11 0 17.5 -10.5t6.5 -22.5q0 -10 -4 -18t-14 -15l-102 -75q-10 -7 -19 -7z" />
    <glyph glyph-name="uni0312" unicode="&#x312;" 
d="M186 577q-14 0 -24.5 13.5t-10.5 27.5q0 18 15 26l124 63q7 2 11 2q15 0 24.5 -13.5t9.5 -27.5q0 -19 -15 -27l-122 -61l-6 -2t-6 -1z" />
    <glyph glyph-name="uni031B" unicode="&#x31b;" 
d="M100 403v72q44 0 67.5 16.5t23.5 48.5q0 15 8.5 29t27.5 14q22 0 29 -15t7 -28q0 -38 -16 -69t-51.5 -49.5t-95.5 -18.5z" />
    <glyph glyph-name="dotbelowcomb" unicode="&#x323;" 
d="M92 -132q-26 0 -43 18t-17 42q0 25 17 42.5t43 17.5q24 0 41.5 -17.5t17.5 -42.5q0 -24 -17.5 -42t-41.5 -18z" />
    <glyph glyph-name="uni0326" unicode="&#x326;" 
d="M55 -181q-14 0 -24.5 14t-10.5 28q0 18 15 26l124 62q6 3 11 3q15 0 24.5 -13.5t9.5 -27.5q0 -19 -16 -28l-121 -60q-3 -1 -6 -2.5t-6 -1.5z" />
    <glyph glyph-name="uni0327" unicode="&#x327;" 
d="M82 -214q-15 0 -34.5 3t-33.5 9.5t-14 15.5q0 4 2.5 11.5t7 14t10.5 6.5q7 0 20 -7t37 -7q25 0 37.5 10t12.5 26q0 17 -13.5 26.5t-40.5 11.5l-48 5l26 98h51l-18 -64q51 -1 74 -23t23 -52q0 -17 -9.5 -37t-31 -33.5t-58.5 -13.5z" />
    <glyph glyph-name="uni0328" unicode="&#x328;" 
d="M109 -208q-33 0 -57.5 9.5t-38 29t-13.5 45.5q0 42 24 81t65 67l42 -18q-33 -23 -54.5 -55.5t-21.5 -65.5q0 -23 15 -34.5t45 -11.5q11 0 16.5 -7.5t5.5 -17.5q0 -9 -5.5 -15.5t-22.5 -6.5z" />
    <glyph glyph-name="uni0335" unicode="&#x335;" 
d="M73 196q-15 0 -24.5 12.5t-9.5 31.5t9.5 32t24.5 13h260q14 0 25 -13t11 -32t-11 -31.5t-25 -12.5h-260z" />
    <glyph glyph-name="pi" unicode="&#x3c0;" horiz-adv-x="522" 
d="M108 0q-20 0 -36.5 8t-16.5 26v405q0 18 14.5 26.5t32.5 8.5h318q18 0 32.5 -8.5t14.5 -26.5v-405q0 -18 -16.5 -26t-36.5 -8t-36.5 8t-16.5 26v346h-200v-346q0 -18 -17 -26t-36 -8z" />
    <glyph glyph-name="Wgrave" unicode="&#x1e80;" horiz-adv-x="845" 
d="M280 -6q-22 0 -42 9t-26 27l-198 648q-1 5 -1 10q0 13 10 22.5t25.5 15t30.5 5.5q13 0 23.5 -5t13.5 -17l163 -570l91 358q4 16 19.5 23.5t32.5 7.5q19 0 34 -7.5t19 -23.5l91 -358l163 570q4 12 14 17t23 5q15 0 30 -5.5t25.5 -15t10.5 -22.5q0 -5 -2 -10l-197 -648
q-6 -18 -25.5 -27t-42.5 -9q-22 0 -42 9t-24 27l-77 302l-75 -302q-5 -18 -24.5 -27t-42.5 -9zM465 824q-4 0 -7 1l-6 2l-121 61q-16 8 -16 27q0 14 9.5 27.5t24.5 13.5q5 0 11 -2l124 -63q15 -8 15 -26q0 -14 -9.5 -27.5t-24.5 -13.5z" />
    <glyph glyph-name="wgrave" unicode="&#x1e81;" horiz-adv-x="682" 
d="M210 -10q-14 0 -25 5t-16 18l-155 404q-2 5 -3.5 9.5t-1.5 7.5q0 13 11 22.5t26.5 15.5t29.5 6q11 0 20 -4.5t12 -14.5l111 -311l85 276q5 15 15 19t22 4q13 0 23 -4t15 -19l83 -278l112 313q6 19 31 19q14 0 29.5 -5.5t26.5 -15.5t11 -24q0 -3 -1 -8t-3 -8l-155 -406
q-4 -12 -15.5 -16.5t-25.5 -4.5q-16 0 -27.5 5t-15.5 15l-88 258l-86 -255q-4 -12 -16.5 -17.5t-28.5 -5.5zM383 567q-4 0 -7 1l-6 2l-121 61q-16 8 -16 27q0 14 9.5 27.5t24.5 13.5q5 0 11 -2l124 -63q15 -8 15 -26q0 -14 -9.5 -27.5t-24.5 -13.5z" />
    <glyph glyph-name="Wacute" unicode="&#x1e82;" horiz-adv-x="845" 
d="M280 -6q-22 0 -42 9t-26 27l-198 648q-1 5 -1 10q0 13 10 22.5t25.5 15t30.5 5.5q13 0 23.5 -5t13.5 -17l163 -570l91 358q4 16 19.5 23.5t32.5 7.5q19 0 34 -7.5t19 -23.5l91 -358l163 570q4 12 14 17t23 5q15 0 30 -5.5t25.5 -15t10.5 -22.5q0 -5 -2 -10l-197 -648
q-6 -18 -25.5 -27t-42.5 -9q-22 0 -42 9t-24 27l-77 302l-75 -302q-5 -18 -24.5 -27t-42.5 -9zM385 824q-14 0 -24.5 13.5t-10.5 27.5q0 18 15 26l124 63q6 2 11 2q15 0 24.5 -13.5t9.5 -27.5q0 -19 -16 -27l-121 -61l-6 -2t-6 -1z" />
    <glyph glyph-name="wacute" unicode="&#x1e83;" horiz-adv-x="682" 
d="M210 -10q-14 0 -25 5t-16 18l-155 404q-2 5 -3.5 9.5t-1.5 7.5q0 13 11 22.5t26.5 15.5t29.5 6q11 0 20 -4.5t12 -14.5l111 -311l85 276q5 15 15 19t22 4q13 0 23 -4t15 -19l83 -278l112 313q6 19 31 19q14 0 29.5 -5.5t26.5 -15.5t11 -24q0 -3 -1 -8t-3 -8l-155 -406
q-4 -12 -15.5 -16.5t-25.5 -4.5q-16 0 -27.5 5t-15.5 15l-88 258l-86 -255q-4 -12 -16.5 -17.5t-28.5 -5.5zM304 568q-14 0 -24.5 13.5t-10.5 27.5q0 18 15 26l124 63q6 2 11 2q15 0 24.5 -13.5t9.5 -27.5q0 -19 -16 -27l-121 -61l-6 -2t-6 -1z" />
    <glyph glyph-name="Wdieresis" unicode="&#x1e84;" horiz-adv-x="845" 
d="M280 -6q-22 0 -42 9t-26 27l-198 648q-1 5 -1 10q0 13 10 22.5t25.5 15t30.5 5.5q13 0 23.5 -5t13.5 -17l163 -570l91 358q4 16 19.5 23.5t32.5 7.5q19 0 34 -7.5t19 -23.5l91 -358l163 570q4 12 14 17t23 5q15 0 30 -5.5t25.5 -15t10.5 -22.5q0 -5 -2 -10l-197 -648
q-6 -18 -25.5 -27t-42.5 -9q-22 0 -42 9t-24 27l-77 302l-75 -302q-5 -18 -24.5 -27t-42.5 -9zM492 830q-19 0 -32 14t-13 33t13 32.5t32 13.5t32 -13.5t13 -32.5t-13 -33t-32 -14zM353 830q-19 0 -32.5 14t-13.5 33t13.5 32.5t32.5 13.5t31.5 -13.5t12.5 -32.5t-12.5 -33
t-31.5 -14z" />
    <glyph glyph-name="wdieresis" unicode="&#x1e85;" horiz-adv-x="682" 
d="M210 -10q-14 0 -25 5t-16 18l-155 404q-2 5 -3.5 9.5t-1.5 7.5q0 13 11 22.5t26.5 15.5t29.5 6q11 0 20 -4.5t12 -14.5l111 -311l85 276q5 15 15 19t22 4q13 0 23 -4t15 -19l83 -278l112 313q6 19 31 19q14 0 29.5 -5.5t26.5 -15.5t11 -24q0 -3 -1 -8t-3 -8l-155 -406
q-4 -12 -15.5 -16.5t-25.5 -4.5q-16 0 -27.5 5t-15.5 15l-88 258l-86 -255q-4 -12 -16.5 -17.5t-28.5 -5.5zM410 573q-19 0 -32 14t-13 33t13 32.5t32 13.5t32 -13.5t13 -32.5t-13 -33t-32 -14zM271 573q-19 0 -32.5 14t-13.5 33t13.5 32.5t32.5 13.5t31.5 -13.5t12.5 -32.5
t-12.5 -33t-31.5 -14z" />
    <glyph glyph-name="uni1EA0" unicode="&#x1ea0;" horiz-adv-x="521" 
d="M79 0q-14 0 -30 6t-26 15.5t-10 22.5q0 3 1 9l199 648q6 18 25.5 27t41.5 9q23 0 42.5 -9t25.5 -27l198 -648q2 -6 2 -9q0 -12 -10.5 -22t-26 -16t-30.5 -6q-13 0 -22.5 5t-13.5 17l-41 142h-248l-40 -142q-3 -12 -13.5 -17t-23.5 -5zM180 249h200l-100 343zM272 -132
q-26 0 -43 18t-17 42q0 25 17 42.5t43 17.5q24 0 41.5 -17.5t17.5 -42.5q0 -24 -17.5 -42t-41.5 -18z" />
    <glyph glyph-name="uni1EA1" unicode="&#x1ea1;" horiz-adv-x="423" 
d="M158 -8q-55 0 -94 32.5t-39 99.5q0 57 30 88t82.5 43t121.5 12h44v18q0 26 -9.5 50.5t-31 41t-58.5 16.5t-57 -7t-32 -15t-22 -8q-18 0 -28 17.5t-10 35.5t23.5 32.5t58.5 23t69 8.5q74 0 118 -27.5t64 -71.5t20 -95v-251q0 -14 -14.5 -24.5t-36.5 -10.5q-20 0 -34 10.5
t-14 24.5v35q-26 -30 -63 -54t-88 -24zM196 72q25 0 49.5 15t41 38t16.5 47v37h-25q-38 0 -72 -4.5t-54.5 -20t-20.5 -47.5q0 -34 18.5 -49.5t46.5 -15.5zM223 -132q-26 0 -43 18t-17 42q0 25 17 42.5t43 17.5q24 0 41.5 -17.5t17.5 -42.5q0 -24 -17.5 -42t-41.5 -18z" />
    <glyph glyph-name="uni1EA2" unicode="&#x1ea2;" horiz-adv-x="561" 
d="M79 0q-14 0 -30 6t-26 15.5t-10 22.5q0 3 1 9l199 648q6 18 25.5 27t41.5 9q23 0 42.5 -9t25.5 -27l198 -648q2 -6 2 -9q0 -12 -10.5 -22t-26 -16t-30.5 -6q-13 0 -22.5 5t-13.5 17l-41 142h-248l-40 -142q-3 -12 -13.5 -17t-23.5 -5zM180 249h200l-100 343zM201 945
q14 12 31 19.5t39 7.5q33 0 50.5 -12t24.5 -28.5t7 -31.5t-6 -27.5t-18 -25.5q-7 -7 -11.5 -14t-4.5 -14q-1 -9 -8 -15t-17 -6t-17 6t-7 15t3.5 18t10.5 18q10 12 17 21.5t7 18.5q0 12 -9.5 19.5t-22.5 7.5t-22.5 -5.5t-17.5 -11.5q-7 -5 -16 -6t-18 9q-8 9 -5.5 19.5
t10.5 17.5z" />
    <glyph glyph-name="uni1EA3" unicode="&#x1ea3;" horiz-adv-x="459" 
d="M158 -8q-55 0 -94 32.5t-39 99.5q0 57 30 88t82.5 43t121.5 12h44v18q0 26 -9.5 50.5t-31 41t-58.5 16.5t-57 -7t-32 -15t-22 -8q-18 0 -28 17.5t-10 35.5t23.5 32.5t58.5 23t69 8.5q74 0 118 -27.5t64 -71.5t20 -95v-251q0 -14 -14.5 -24.5t-36.5 -10.5q-20 0 -34 10.5
t-14 24.5v35q-26 -30 -63 -54t-88 -24zM196 72q25 0 49.5 15t41 38t16.5 47v37h-25q-38 0 -72 -4.5t-54.5 -20t-20.5 -47.5q0 -34 18.5 -49.5t46.5 -15.5zM139 694q14 12 31 19.5t39 7.5q33 0 50.5 -12t24.5 -28.5t7 -31.5t-6 -27.5t-18 -25.5q-7 -7 -11.5 -14t-4.5 -14
q-1 -9 -8 -15t-17 -6t-17 6t-7 15t3.5 18t10.5 18q10 12 17 21.5t7 18.5q0 12 -9.5 19.5t-22.5 7.5t-22.5 -5.5t-17.5 -11.5q-7 -5 -16 -6t-18 9q-8 9 -5.5 19.5t10.5 17.5z" />
    <glyph glyph-name="uni1EA4" unicode="&#x1ea4;" horiz-adv-x="521" 
d="M79 0q-14 0 -30 6t-26 15.5t-10 22.5q0 3 1 9l199 648q6 18 25.5 27t41.5 9q23 0 42.5 -9t25.5 -27l198 -648q2 -6 2 -9q0 -12 -10.5 -22t-26 -16t-30.5 -6q-13 0 -22.5 5t-13.5 17l-41 142h-248l-40 -142q-3 -12 -13.5 -17t-23.5 -5zM180 249h200l-100 343zM181 794
q-11 0 -18.5 10.5t-7.5 24.5q0 19 18 31l80 56q8 5 17 5q10 0 17 -5l80 -55q18 -13 18 -33q0 -13 -7 -23.5t-18 -10.5q-2 0 -4.5 1t-5.5 2l-80 56l-80 -56q-2 -1 -4.5 -2t-4.5 -1zM233 898q-14 0 -24.5 13.5t-10.5 27.5q0 18 15 26l124 63q6 2 11 2q15 0 24.5 -13.5
t9.5 -27.5q0 -19 -16 -27l-121 -61l-6 -2t-6 -1z" />
    <glyph glyph-name="uni1EA5" unicode="&#x1ea5;" horiz-adv-x="423" 
d="M158 -8q-55 0 -94 32.5t-39 99.5q0 57 30 88t82.5 43t121.5 12h44v18q0 26 -9.5 50.5t-31 41t-58.5 16.5t-57 -7t-32 -15t-22 -8q-18 0 -28 17.5t-10 35.5t23.5 32.5t58.5 23t69 8.5q74 0 118 -27.5t64 -71.5t20 -95v-251q0 -14 -14.5 -24.5t-36.5 -10.5q-20 0 -34 10.5
t-14 24.5v35q-26 -30 -63 -54t-88 -24zM196 72q25 0 49.5 15t41 38t16.5 47v37h-25q-38 0 -72 -4.5t-54.5 -20t-20.5 -47.5q0 -34 18.5 -49.5t46.5 -15.5zM132 535q-11 0 -18.5 10.5t-7.5 24.5q0 19 18 31l80 56q8 5 17 5q10 0 17 -5l80 -55q18 -13 18 -33q0 -13 -7 -23.5
t-18 -10.5q-2 0 -4.5 1t-5.5 2l-80 56l-80 -56q-2 -1 -4.5 -2t-4.5 -1zM184 639q-14 0 -24.5 13.5t-10.5 27.5q0 18 15 26l124 63q6 2 11 2q15 0 24.5 -13.5t9.5 -27.5q0 -19 -16 -27l-121 -61l-6 -2t-6 -1z" />
    <glyph glyph-name="uni1EA6" unicode="&#x1ea6;" horiz-adv-x="521" 
d="M79 0q-14 0 -30 6t-26 15.5t-10 22.5q0 3 1 9l199 648q6 18 25.5 27t41.5 9q23 0 42.5 -9t25.5 -27l198 -648q2 -6 2 -9q0 -12 -10.5 -22t-26 -16t-30.5 -6q-13 0 -22.5 5t-13.5 17l-41 142h-248l-40 -142q-3 -12 -13.5 -17t-23.5 -5zM180 249h200l-100 343zM181 796
q-11 0 -18.5 10.5t-7.5 24.5q0 19 18 31l80 56q8 5 17 5q10 0 17 -5l80 -55q18 -13 18 -33q0 -13 -7 -23.5t-18 -10.5q-2 0 -4.5 1t-5.5 2l-80 56l-80 -56q-2 -1 -4.5 -2t-4.5 -1zM355 896q-4 0 -7 1l-6 2l-121 61q-16 8 -16 27q0 14 9.5 27.5t24.5 13.5q5 0 11 -2l124 -63
q15 -8 15 -26q0 -14 -9.5 -27.5t-24.5 -13.5z" />
    <glyph glyph-name="uni1EA7" unicode="&#x1ea7;" horiz-adv-x="423" 
d="M158 -8q-55 0 -94 32.5t-39 99.5q0 57 30 88t82.5 43t121.5 12h44v18q0 26 -9.5 50.5t-31 41t-58.5 16.5t-57 -7t-32 -15t-22 -8q-18 0 -28 17.5t-10 35.5t23.5 32.5t58.5 23t69 8.5q74 0 118 -27.5t64 -71.5t20 -95v-251q0 -14 -14.5 -24.5t-36.5 -10.5q-20 0 -34 10.5
t-14 24.5v35q-26 -30 -63 -54t-88 -24zM196 72q25 0 49.5 15t41 38t16.5 47v37h-25q-38 0 -72 -4.5t-54.5 -20t-20.5 -47.5q0 -34 18.5 -49.5t46.5 -15.5zM132 537q-11 0 -18.5 10.5t-7.5 24.5q0 19 18 31l80 56q8 5 17 5q10 0 17 -5l80 -55q18 -13 18 -33q0 -13 -7 -23.5
t-18 -10.5q-2 0 -4.5 1t-5.5 2l-80 56l-80 -56q-2 -1 -4.5 -2t-4.5 -1zM306 637q-4 0 -7 1l-6 2l-121 61q-16 8 -16 27q0 14 9.5 27.5t24.5 13.5q5 0 11 -2l124 -63q15 -8 15 -26q0 -14 -9.5 -27.5t-24.5 -13.5z" />
    <glyph glyph-name="uni1EA8" unicode="&#x1ea8;" horiz-adv-x="561" 
d="M79 0q-14 0 -30 6t-26 15.5t-10 22.5q0 3 1 9l199 648q6 18 25.5 27t41.5 9q23 0 42.5 -9t25.5 -27l198 -648q2 -6 2 -9q0 -12 -10.5 -22t-26 -16t-30.5 -6q-13 0 -22.5 5t-13.5 17l-41 142h-248l-40 -142q-3 -12 -13.5 -17t-23.5 -5zM180 249h200l-100 343zM191 801
q-11 0 -18.5 10.5t-7.5 24.5q0 19 18 31l80 56q8 5 17 5q10 0 17 -5l80 -55q18 -13 18 -33q0 -13 -7 -23.5t-18 -10.5q-2 0 -4.5 1t-5.5 2l-80 56l-80 -56q-2 -1 -4.5 -2t-4.5 -1zM322 1030q14 12 31 19.5t39 7.5q33 0 50.5 -12t24.5 -28.5t7 -31.5t-6 -27.5t-18 -25.5
q-7 -7 -11.5 -14t-4.5 -14q-1 -9 -8 -15t-17 -6t-17 6t-7 15t3.5 18t10.5 18q10 12 17 21.5t7 18.5q0 12 -9.5 19.5t-22.5 7.5t-22.5 -5.5t-17.5 -11.5q-7 -5 -16 -6t-18 9q-8 9 -5.5 19.5t10.5 17.5z" />
    <glyph glyph-name="uni1EA9" unicode="&#x1ea9;" horiz-adv-x="459" 
d="M158 -8q-55 0 -94 32.5t-39 99.5q0 57 30 88t82.5 43t121.5 12h44v18q0 26 -9.5 50.5t-31 41t-58.5 16.5t-57 -7t-32 -15t-22 -8q-18 0 -28 17.5t-10 35.5t23.5 32.5t58.5 23t69 8.5q74 0 118 -27.5t64 -71.5t20 -95v-251q0 -14 -14.5 -24.5t-36.5 -10.5q-20 0 -34 10.5
t-14 24.5v35q-26 -30 -63 -54t-88 -24zM196 72q25 0 49.5 15t41 38t16.5 47v37h-25q-38 0 -72 -4.5t-54.5 -20t-20.5 -47.5q0 -34 18.5 -49.5t46.5 -15.5zM128 551q-11 0 -18.5 10.5t-7.5 24.5q0 19 18 31l80 56q8 5 17 5q10 0 17 -5l80 -55q18 -13 18 -33q0 -13 -7 -23.5
t-18 -10.5q-2 0 -4.5 1t-5.5 2l-80 56l-80 -56q-2 -1 -4.5 -2t-4.5 -1zM259 780q14 12 31 19.5t39 7.5q33 0 50.5 -12t24.5 -28.5t7 -31.5t-6 -27.5t-18 -25.5q-7 -7 -11.5 -14t-4.5 -14q-1 -9 -8 -15t-17 -6t-17 6t-7 15t3.5 18t10.5 18q10 12 17 21.5t7 18.5
q0 12 -9.5 19.5t-22.5 7.5t-22.5 -5.5t-17.5 -11.5q-7 -5 -16 -6t-18 9q-8 9 -5.5 19.5t10.5 17.5z" />
    <glyph glyph-name="uni1EAA" unicode="&#x1eaa;" horiz-adv-x="521" 
d="M79 0q-14 0 -30 6t-26 15.5t-10 22.5q0 3 1 9l199 648q6 18 25.5 27t41.5 9q23 0 42.5 -9t25.5 -27l198 -648q2 -6 2 -9q0 -12 -10.5 -22t-26 -16t-30.5 -6q-13 0 -22.5 5t-13.5 17l-41 142h-248l-40 -142q-3 -12 -13.5 -17t-23.5 -5zM180 249h200l-100 343zM181 794
q-11 0 -18.5 10.5t-7.5 24.5q0 19 18 31l80 56q8 5 17 5q10 0 17 -5l80 -55q18 -13 18 -33q0 -13 -7 -23.5t-18 -10.5q-2 0 -4.5 1t-5.5 2l-80 56l-80 -56q-2 -1 -4.5 -2t-4.5 -1zM358 892q-30 0 -51.5 8t-41.5 15.5t-46 7.5q-21 0 -35 -6.5t-24 -13.5t-19 -7
q-10 0 -16.5 6.5t-9 15.5t-2.5 14q0 20 9.5 32t24 19t29 10t24.5 3q28 0 49 -7.5t42 -15.5t47 -8q22 0 35 6.5t22.5 12.5t19.5 6q11 0 17 -6.5t8.5 -14.5t2.5 -13q0 -21 -9.5 -33.5t-23.5 -19.5t-28.5 -9t-23.5 -2z" />
    <glyph glyph-name="uni1EAB" unicode="&#x1eab;" horiz-adv-x="423" 
d="M158 -8q-55 0 -94 32.5t-39 99.5q0 57 30 88t82.5 43t121.5 12h44v18q0 26 -9.5 50.5t-31 41t-58.5 16.5t-57 -7t-32 -15t-22 -8q-18 0 -28 17.5t-10 35.5t23.5 32.5t58.5 23t69 8.5q74 0 118 -27.5t64 -71.5t20 -95v-251q0 -14 -14.5 -24.5t-36.5 -10.5q-20 0 -34 10.5
t-14 24.5v35q-26 -30 -63 -54t-88 -24zM196 72q25 0 49.5 15t41 38t16.5 47v37h-25q-38 0 -72 -4.5t-54.5 -20t-20.5 -47.5q0 -34 18.5 -49.5t46.5 -15.5zM132 535q-11 0 -18.5 10.5t-7.5 24.5q0 19 18 31l80 56q8 5 17 5q10 0 17 -5l80 -55q18 -13 18 -33q0 -13 -7 -23.5
t-18 -10.5q-2 0 -4.5 1t-5.5 2l-80 56l-80 -56q-2 -1 -4.5 -2t-4.5 -1zM309 633q-30 0 -51.5 8t-41.5 15.5t-46 7.5q-21 0 -35 -6.5t-24 -13.5t-19 -7q-10 0 -16.5 6.5t-9 15.5t-2.5 14q0 20 9.5 32t24 19t29 10t24.5 3q28 0 49 -7.5t42 -15.5t47 -8q22 0 35 6.5t22.5 12.5
t19.5 6q11 0 17 -6.5t8.5 -14.5t2.5 -13q0 -21 -9.5 -33.5t-23.5 -19.5t-28.5 -9t-23.5 -2z" />
    <glyph glyph-name="uni1EAC" unicode="&#x1eac;" horiz-adv-x="521" 
d="M79 0q-14 0 -30 6t-26 15.5t-10 22.5q0 3 1 9l199 648q6 18 25.5 27t41.5 9q23 0 42.5 -9t25.5 -27l198 -648q2 -6 2 -9q0 -12 -10.5 -22t-26 -16t-30.5 -6q-13 0 -22.5 5t-13.5 17l-41 142h-248l-40 -142q-3 -12 -13.5 -17t-23.5 -5zM180 249h200l-100 343zM272 -132
q-26 0 -43 18t-17 42q0 25 17 42.5t43 17.5q24 0 41.5 -17.5t17.5 -42.5q0 -24 -17.5 -42t-41.5 -18zM157 841q-11 0 -18.5 10.5t-7.5 24.5q0 9 4.5 17.5t13.5 13.5l104 56q9 5 17 5t17 -5l104 -55q11 -5 15 -14.5t4 -18.5q0 -13 -7 -23.5t-19 -10.5q-2 0 -4.5 1t-5.5 2
l-104 56l-104 -56q-2 -1 -4.5 -2t-4.5 -1z" />
    <glyph glyph-name="uni1EAD" unicode="&#x1ead;" horiz-adv-x="423" 
d="M158 -8q-55 0 -94 32.5t-39 99.5q0 57 30 88t82.5 43t121.5 12h44v18q0 26 -9.5 50.5t-31 41t-58.5 16.5t-57 -7t-32 -15t-22 -8q-18 0 -28 17.5t-10 35.5t23.5 32.5t58.5 23t69 8.5q74 0 118 -27.5t64 -71.5t20 -95v-251q0 -14 -14.5 -24.5t-36.5 -10.5q-20 0 -34 10.5
t-14 24.5v35q-26 -30 -63 -54t-88 -24zM196 72q25 0 49.5 15t41 38t16.5 47v37h-25q-38 0 -72 -4.5t-54.5 -20t-20.5 -47.5q0 -34 18.5 -49.5t46.5 -15.5zM223 -132q-26 0 -43 18t-17 42q0 25 17 42.5t43 17.5q24 0 41.5 -17.5t17.5 -42.5q0 -24 -17.5 -42t-41.5 -18z
M108 582q-11 0 -18.5 10.5t-7.5 24.5q0 9 4.5 17.5t13.5 13.5l104 56q9 5 17 5t17 -5l104 -55q11 -5 15 -14.5t4 -18.5q0 -13 -7 -23.5t-19 -10.5q-2 0 -4.5 1t-5.5 2l-104 56l-104 -56q-2 -1 -4.5 -2t-4.5 -1z" />
    <glyph glyph-name="uni1EAE" unicode="&#x1eae;" horiz-adv-x="561" 
d="M79 0q-14 0 -30 6t-26 15.5t-10 22.5q0 3 1 9l199 648q6 18 25.5 27t41.5 9q23 0 42.5 -9t25.5 -27l198 -648q2 -6 2 -9q0 -12 -10.5 -22t-26 -16t-30.5 -6q-13 0 -22.5 5t-13.5 17l-41 142h-248l-40 -142q-3 -12 -13.5 -17t-23.5 -5zM180 249h200l-100 343zM280 801
q-43 0 -78.5 29t-45.5 71q-3 12 4 19t18 7h13q10 0 16 -5.5t9 -15.5q6 -25 24.5 -40.5t39.5 -15.5q22 0 39.5 15.5t23.5 40.5q3 10 9 15.5t16 5.5h13q11 0 18.5 -7t4.5 -19q-11 -42 -46.5 -71t-77.5 -29zM264 963q-14 0 -24.5 13.5t-10.5 27.5q0 18 15 26l124 63q6 2 11 2
q15 0 24.5 -13.5t9.5 -27.5q0 -19 -16 -27l-121 -61l-6 -2t-6 -1z" />
    <glyph glyph-name="uni1EAF" unicode="&#x1eaf;" horiz-adv-x="459" 
d="M158 -8q-55 0 -94 32.5t-39 99.5q0 57 30 88t82.5 43t121.5 12h44v18q0 26 -9.5 50.5t-31 41t-58.5 16.5t-57 -7t-32 -15t-22 -8q-18 0 -28 17.5t-10 35.5t23.5 32.5t58.5 23t69 8.5q74 0 118 -27.5t64 -71.5t20 -95v-251q0 -14 -14.5 -24.5t-36.5 -10.5q-20 0 -34 10.5
t-14 24.5v35q-26 -30 -63 -54t-88 -24zM196 72q25 0 49.5 15t41 38t16.5 47v37h-25q-38 0 -72 -4.5t-54.5 -20t-20.5 -47.5q0 -34 18.5 -49.5t46.5 -15.5zM218 551q-43 0 -78.5 29t-45.5 71q-3 12 4 19t18 7h13q10 0 16 -5.5t9 -15.5q6 -25 24.5 -40.5t39.5 -15.5
q22 0 39.5 15.5t23.5 40.5q3 10 9 15.5t16 5.5h13q11 0 18.5 -7t4.5 -19q-11 -42 -46.5 -71t-77.5 -29zM202 713q-14 0 -24.5 13.5t-10.5 27.5q0 18 15 26l124 63q6 2 11 2q15 0 24.5 -13.5t9.5 -27.5q0 -19 -16 -27l-121 -61l-6 -2t-6 -1z" />
    <glyph glyph-name="uni1EB0" unicode="&#x1eb0;" horiz-adv-x="561" 
d="M79 0q-14 0 -30 6t-26 15.5t-10 22.5q0 3 1 9l199 648q6 18 25.5 27t41.5 9q23 0 42.5 -9t25.5 -27l198 -648q2 -6 2 -9q0 -12 -10.5 -22t-26 -16t-30.5 -6q-13 0 -22.5 5t-13.5 17l-41 142h-248l-40 -142q-3 -12 -13.5 -17t-23.5 -5zM180 249h200l-100 343zM277 802
q-43 0 -78.5 29t-45.5 71q-3 12 4 19t18 7h13q10 0 16 -5.5t9 -15.5q6 -25 24.5 -40.5t39.5 -15.5q22 0 39.5 15.5t23.5 40.5q3 10 9 15.5t16 5.5h13q11 0 18.5 -7t4.5 -19q-11 -42 -46.5 -71t-77.5 -29zM280 950q-4 0 -7 1l-6 2l-121 61q-16 8 -16 27q0 14 9.5 27.5
t24.5 13.5q5 0 11 -2l124 -63q15 -8 15 -26q0 -14 -9.5 -27.5t-24.5 -13.5z" />
    <glyph glyph-name="uni1EB1" unicode="&#x1eb1;" horiz-adv-x="459" 
d="M158 -8q-55 0 -94 32.5t-39 99.5q0 57 30 88t82.5 43t121.5 12h44v18q0 26 -9.5 50.5t-31 41t-58.5 16.5t-57 -7t-32 -15t-22 -8q-18 0 -28 17.5t-10 35.5t23.5 32.5t58.5 23t69 8.5q74 0 118 -27.5t64 -71.5t20 -95v-251q0 -14 -14.5 -24.5t-36.5 -10.5q-20 0 -34 10.5
t-14 24.5v35q-26 -30 -63 -54t-88 -24zM196 72q25 0 49.5 15t41 38t16.5 47v37h-25q-38 0 -72 -4.5t-54.5 -20t-20.5 -47.5q0 -34 18.5 -49.5t46.5 -15.5zM214 552q-43 0 -78.5 29t-45.5 71q-3 12 4 19t18 7h13q10 0 16 -5.5t9 -15.5q6 -25 24.5 -40.5t39.5 -15.5
q22 0 39.5 15.5t23.5 40.5q3 10 9 15.5t16 5.5h13q11 0 18.5 -7t4.5 -19q-11 -42 -46.5 -71t-77.5 -29zM217 700q-4 0 -7 1l-6 2l-121 61q-16 8 -16 27q0 14 9.5 27.5t24.5 13.5q5 0 11 -2l124 -63q15 -8 15 -26q0 -14 -9.5 -27.5t-24.5 -13.5z" />
    <glyph glyph-name="uni1EB2" unicode="&#x1eb2;" horiz-adv-x="561" 
d="M79 0q-14 0 -30 6t-26 15.5t-10 22.5q0 3 1 9l199 648q6 18 25.5 27t41.5 9q23 0 42.5 -9t25.5 -27l198 -648q2 -6 2 -9q0 -12 -10.5 -22t-26 -16t-30.5 -6q-13 0 -22.5 5t-13.5 17l-41 142h-248l-40 -142q-3 -12 -13.5 -17t-23.5 -5zM180 249h200l-100 343zM281 801
q-43 0 -78.5 29t-45.5 71q-3 12 4 19t18 7h13q10 0 16 -5.5t9 -15.5q6 -25 24.5 -40.5t39.5 -15.5q22 0 39.5 15.5t23.5 40.5q3 10 9 15.5t16 5.5h13q11 0 18.5 -7t4.5 -19q-11 -42 -46.5 -71t-77.5 -29zM195 1062q14 12 31 19.5t39 7.5q33 0 50.5 -12t24.5 -28.5t7 -31.5
t-6 -27.5t-18 -25.5q-7 -7 -11.5 -14t-4.5 -14q-1 -9 -8 -15t-17 -6t-17 6t-7 15t3.5 18t10.5 18q10 12 17 21.5t7 18.5q0 12 -9.5 19.5t-22.5 7.5t-22.5 -5.5t-17.5 -11.5q-7 -5 -16 -6t-18 9q-8 9 -5.5 19.5t10.5 17.5z" />
    <glyph glyph-name="uni1EB3" unicode="&#x1eb3;" horiz-adv-x="459" 
d="M158 -8q-55 0 -94 32.5t-39 99.5q0 57 30 88t82.5 43t121.5 12h44v18q0 26 -9.5 50.5t-31 41t-58.5 16.5t-57 -7t-32 -15t-22 -8q-18 0 -28 17.5t-10 35.5t23.5 32.5t58.5 23t69 8.5q74 0 118 -27.5t64 -71.5t20 -95v-251q0 -14 -14.5 -24.5t-36.5 -10.5q-20 0 -34 10.5
t-14 24.5v35q-26 -30 -63 -54t-88 -24zM196 72q25 0 49.5 15t41 38t16.5 47v37h-25q-38 0 -72 -4.5t-54.5 -20t-20.5 -47.5q0 -34 18.5 -49.5t46.5 -15.5zM218 550q-43 0 -78.5 29t-45.5 71q-3 12 4 19t18 7h13q10 0 16 -5.5t9 -15.5q6 -25 24.5 -40.5t39.5 -15.5
q22 0 39.5 15.5t23.5 40.5q3 10 9 15.5t16 5.5h13q11 0 18.5 -7t4.5 -19q-11 -42 -46.5 -71t-77.5 -29zM133 812q14 12 31 19.5t39 7.5q33 0 50.5 -12t24.5 -28.5t7 -31.5t-6 -27.5t-18 -25.5q-7 -7 -11.5 -14t-4.5 -14q-1 -9 -8 -15t-17 -6t-17 6t-7 15t3.5 18t10.5 18
q10 12 17 21.5t7 18.5q0 12 -9.5 19.5t-22.5 7.5t-22.5 -5.5t-17.5 -11.5q-7 -5 -16 -6t-18 9q-8 9 -5.5 19.5t10.5 17.5z" />
    <glyph glyph-name="uni1EB4" unicode="&#x1eb4;" horiz-adv-x="521" 
d="M79 0q-14 0 -30 6t-26 15.5t-10 22.5q0 3 1 9l199 648q6 18 25.5 27t41.5 9q23 0 42.5 -9t25.5 -27l198 -648q2 -6 2 -9q0 -12 -10.5 -22t-26 -16t-30.5 -6q-13 0 -22.5 5t-13.5 17l-41 142h-248l-40 -142q-3 -12 -13.5 -17t-23.5 -5zM180 249h200l-100 343zM279 804
q-43 0 -78.5 29t-45.5 71q-3 12 4 19t18 7h13q10 0 16 -5.5t9 -15.5q6 -25 24.5 -40.5t39.5 -15.5q22 0 39.5 15.5t23.5 40.5q3 10 9 15.5t16 5.5h13q11 0 18.5 -7t4.5 -19q-11 -42 -46.5 -71t-77.5 -29zM358 925q-30 0 -51.5 8t-41.5 15.5t-46 7.5q-21 0 -35 -6.5
t-24 -13.5t-19 -7q-10 0 -16.5 6.5t-9 15.5t-2.5 14q0 20 9.5 32t24 19t29 10t24.5 3q28 0 49 -7.5t42 -15.5t47 -8q22 0 35 6.5t22.5 12.5t19.5 6q11 0 17 -6.5t8.5 -14.5t2.5 -13q0 -21 -9.5 -33.5t-23.5 -19.5t-28.5 -9t-23.5 -2z" />
    <glyph glyph-name="uni1EB5" unicode="&#x1eb5;" horiz-adv-x="423" 
d="M158 -8q-55 0 -94 32.5t-39 99.5q0 57 30 88t82.5 43t121.5 12h44v18q0 26 -9.5 50.5t-31 41t-58.5 16.5t-57 -7t-32 -15t-22 -8q-18 0 -28 17.5t-10 35.5t23.5 32.5t58.5 23t69 8.5q74 0 118 -27.5t64 -71.5t20 -95v-251q0 -14 -14.5 -24.5t-36.5 -10.5q-20 0 -34 10.5
t-14 24.5v35q-26 -30 -63 -54t-88 -24zM196 72q25 0 49.5 15t41 38t16.5 47v37h-25q-38 0 -72 -4.5t-54.5 -20t-20.5 -47.5q0 -34 18.5 -49.5t46.5 -15.5zM230 545q-43 0 -78.5 29t-45.5 71q-3 12 4 19t18 7h13q10 0 16 -5.5t9 -15.5q6 -25 24.5 -40.5t39.5 -15.5
q22 0 39.5 15.5t23.5 40.5q3 10 9 15.5t16 5.5h13q11 0 18.5 -7t4.5 -19q-11 -42 -46.5 -71t-77.5 -29zM309 666q-30 0 -51.5 8t-41.5 15.5t-46 7.5q-21 0 -35 -6.5t-24 -13.5t-19 -7q-10 0 -16.5 6.5t-9 15.5t-2.5 14q0 20 9.5 32t24 19t29 10t24.5 3q28 0 49 -7.5
t42 -15.5t47 -8q22 0 35 6.5t22.5 12.5t19.5 6q11 0 17 -6.5t8.5 -14.5t2.5 -13q0 -21 -9.5 -33.5t-23.5 -19.5t-28.5 -9t-23.5 -2z" />
    <glyph glyph-name="uni1EB6" unicode="&#x1eb6;" horiz-adv-x="521" 
d="M79 0q-14 0 -30 6t-26 15.5t-10 22.5q0 3 1 9l199 648q6 18 25.5 27t41.5 9q23 0 42.5 -9t25.5 -27l198 -648q2 -6 2 -9q0 -12 -10.5 -22t-26 -16t-30.5 -6q-13 0 -22.5 5t-13.5 17l-41 142h-248l-40 -142q-3 -12 -13.5 -17t-23.5 -5zM180 249h200l-100 343zM272 -132
q-26 0 -43 18t-17 42q0 25 17 42.5t43 17.5q24 0 41.5 -17.5t17.5 -42.5q0 -24 -17.5 -42t-41.5 -18zM279 851q-43 0 -78.5 29t-45.5 71q-3 12 4 19t18 7h13q10 0 16 -5.5t9 -15.5q6 -25 24.5 -40.5t39.5 -15.5q22 0 39.5 15.5t23.5 40.5q3 10 9 15.5t16 5.5h13
q11 0 18.5 -7t4.5 -19q-11 -42 -46.5 -71t-77.5 -29z" />
    <glyph glyph-name="uni1EB7" unicode="&#x1eb7;" horiz-adv-x="423" 
d="M158 -8q-55 0 -94 32.5t-39 99.5q0 57 30 88t82.5 43t121.5 12h44v18q0 26 -9.5 50.5t-31 41t-58.5 16.5t-57 -7t-32 -15t-22 -8q-18 0 -28 17.5t-10 35.5t23.5 32.5t58.5 23t69 8.5q74 0 118 -27.5t64 -71.5t20 -95v-251q0 -14 -14.5 -24.5t-36.5 -10.5q-20 0 -34 10.5
t-14 24.5v35q-26 -30 -63 -54t-88 -24zM196 72q25 0 49.5 15t41 38t16.5 47v37h-25q-38 0 -72 -4.5t-54.5 -20t-20.5 -47.5q0 -34 18.5 -49.5t46.5 -15.5zM223 -132q-26 0 -43 18t-17 42q0 25 17 42.5t43 17.5q24 0 41.5 -17.5t17.5 -42.5q0 -24 -17.5 -42t-41.5 -18z
M230 592q-43 0 -78.5 29t-45.5 71q-3 12 4 19t18 7h13q10 0 16 -5.5t9 -15.5q6 -25 24.5 -40.5t39.5 -15.5q22 0 39.5 15.5t23.5 40.5q3 10 9 15.5t16 5.5h13q11 0 18.5 -7t4.5 -19q-11 -42 -46.5 -71t-77.5 -29z" />
    <glyph glyph-name="uni1EB8" unicode="&#x1eb8;" horiz-adv-x="498" 
d="M113 0q-17 0 -32 9t-15 26v661q0 17 15 26t32 9h356q19 0 27 -15t8 -31q0 -19 -9 -33.5t-26 -14.5h-297v-229h154q17 0 26 -13t9 -30q0 -14 -8 -27.5t-27 -13.5h-154v-230h297q17 0 26 -14t9 -34q0 -16 -8 -31t-27 -15h-356zM260 -132q-26 0 -43 18t-17 42q0 25 17 42.5
t43 17.5q24 0 41.5 -17.5t17.5 -42.5q0 -24 -17.5 -42t-41.5 -18z" />
    <glyph glyph-name="uni1EB9" unicode="&#x1eb9;" horiz-adv-x="445" 
d="M269 -8q-68 0 -120 25t-82 69.5t-30 104.5v95q0 53 28.5 97t75.5 70.5t104 26.5q54 0 99 -23.5t72.5 -65.5t27.5 -96q0 -42 -13 -60t-34 -22t-44 -4h-211v-23q0 -50 36.5 -79.5t93.5 -29.5q35 0 57 10t37 19t28 9t22 -8t14 -19t5 -20q0 -15 -20.5 -33t-57.5 -30.5
t-88 -12.5zM142 274h166q22 0 29.5 6t7.5 24q0 26 -13 48.5t-36 35t-52 12.5q-28 0 -51 -12t-37 -33t-14 -49v-32zM240 -132q-26 0 -43 18t-17 42q0 25 17 42.5t43 17.5q24 0 41.5 -17.5t17.5 -42.5q0 -24 -17.5 -42t-41.5 -18z" />
    <glyph glyph-name="uni1EBA" unicode="&#x1eba;" horiz-adv-x="522" 
d="M113 0q-17 0 -32 9t-15 26v661q0 17 15 26t32 9h356q19 0 27 -15t8 -31q0 -19 -9 -33.5t-26 -14.5h-297v-229h154q17 0 26 -13t9 -30q0 -14 -8 -27.5t-27 -13.5h-154v-230h297q17 0 26 -14t9 -34q0 -16 -8 -31t-27 -15h-356zM201 945q14 12 31 19.5t39 7.5q33 0 50.5 -12
t24.5 -28.5t7 -31.5t-6 -27.5t-18 -25.5q-7 -7 -11.5 -14t-4.5 -14q-1 -9 -8 -15t-17 -6t-17 6t-7 15t3.5 18t10.5 18q10 12 17 21.5t7 18.5q0 12 -9.5 19.5t-22.5 7.5t-22.5 -5.5t-17.5 -11.5q-7 -5 -16 -6t-18 9q-8 9 -5.5 19.5t10.5 17.5z" />
    <glyph glyph-name="uni1EBB" unicode="&#x1ebb;" horiz-adv-x="475" 
d="M269 -8q-68 0 -120 25t-82 69.5t-30 104.5v95q0 53 28.5 97t75.5 70.5t104 26.5q54 0 99 -23.5t72.5 -65.5t27.5 -96q0 -42 -13 -60t-34 -22t-44 -4h-211v-23q0 -50 36.5 -79.5t93.5 -29.5q35 0 57 10t37 19t28 9t22 -8t14 -19t5 -20q0 -15 -20.5 -33t-57.5 -30.5
t-88 -12.5zM142 274h166q22 0 29.5 6t7.5 24q0 26 -13 48.5t-36 35t-52 12.5q-28 0 -51 -12t-37 -33t-14 -49v-32zM165 697q14 12 31 19.5t39 7.5q33 0 50.5 -12t24.5 -28.5t7 -31.5t-6 -27.5t-18 -25.5q-7 -7 -11.5 -14t-4.5 -14q-1 -9 -8 -15t-17 -6t-17 6t-7 15t3.5 18
t10.5 18q10 12 17 21.5t7 18.5q0 12 -9.5 19.5t-22.5 7.5t-22.5 -5.5t-17.5 -11.5q-7 -5 -16 -6t-18 9q-8 9 -5.5 19.5t10.5 17.5z" />
    <glyph glyph-name="uni1EBC" unicode="&#x1ebc;" horiz-adv-x="522" 
d="M113 0q-17 0 -32 9t-15 26v661q0 17 15 26t32 9h356q19 0 27 -15t8 -31q0 -19 -9 -33.5t-26 -14.5h-297v-229h154q17 0 26 -13t9 -30q0 -14 -8 -27.5t-27 -13.5h-154v-230h297q17 0 26 -14t9 -34q0 -16 -8 -31t-27 -15h-356zM361 843q-30 0 -51.5 8t-41.5 15.5t-46 7.5
q-21 0 -35 -6.5t-24 -13.5t-19 -7q-10 0 -16.5 6.5t-9 15.5t-2.5 14q0 20 9.5 32t24 19t29 10t24.5 3q28 0 49 -7.5t42 -15.5t47 -8q22 0 35 6.5t22.5 12.5t19.5 6q11 0 17 -6.5t8.5 -14.5t2.5 -13q0 -21 -9.5 -33.5t-23.5 -19.5t-28.5 -9t-23.5 -2z" />
    <glyph glyph-name="uni1EBD" unicode="&#x1ebd;" horiz-adv-x="475" 
d="M269 -8q-68 0 -120 25t-82 69.5t-30 104.5v95q0 53 28.5 97t75.5 70.5t104 26.5q54 0 99 -23.5t72.5 -65.5t27.5 -96q0 -42 -13 -60t-34 -22t-44 -4h-211v-23q0 -50 36.5 -79.5t93.5 -29.5q35 0 57 10t37 19t28 9t22 -8t14 -19t5 -20q0 -15 -20.5 -33t-57.5 -30.5
t-88 -12.5zM142 274h166q22 0 29.5 6t7.5 24q0 26 -13 48.5t-36 35t-52 12.5q-28 0 -51 -12t-37 -33t-14 -49v-32zM325 595q-30 0 -51.5 8t-41.5 15.5t-46 7.5q-21 0 -35 -6.5t-24 -13.5t-19 -7q-10 0 -16.5 6.5t-9 15.5t-2.5 14q0 20 9.5 32t24 19t29 10t24.5 3
q28 0 49 -7.5t42 -15.5t47 -8q22 0 35 6.5t22.5 12.5t19.5 6q11 0 17 -6.5t8.5 -14.5t2.5 -13q0 -21 -9.5 -33.5t-23.5 -19.5t-28.5 -9t-23.5 -2z" />
    <glyph glyph-name="uni1EBE" unicode="&#x1ebe;" horiz-adv-x="498" 
d="M113 0q-17 0 -32 9t-15 26v661q0 17 15 26t32 9h356q19 0 27 -15t8 -31q0 -19 -9 -33.5t-26 -14.5h-297v-229h154q17 0 26 -13t9 -30q0 -14 -8 -27.5t-27 -13.5h-154v-230h297q17 0 26 -14t9 -34q0 -16 -8 -31t-27 -15h-356zM200 794q-11 0 -18.5 10.5t-7.5 24.5
q0 19 18 31l80 56q8 5 17 5q10 0 17 -5l80 -55q18 -13 18 -33q0 -13 -7 -23.5t-18 -10.5q-2 0 -4.5 1t-5.5 2l-80 56l-80 -56q-2 -1 -4.5 -2t-4.5 -1zM252 898q-14 0 -24.5 13.5t-10.5 27.5q0 18 15 26l124 63q6 2 11 2q15 0 24.5 -13.5t9.5 -27.5q0 -19 -16 -27l-121 -61
l-6 -2t-6 -1z" />
    <glyph glyph-name="uni1EBF" unicode="&#x1ebf;" horiz-adv-x="445" 
d="M269 -8q-68 0 -120 25t-82 69.5t-30 104.5v95q0 53 28.5 97t75.5 70.5t104 26.5q54 0 99 -23.5t72.5 -65.5t27.5 -96q0 -42 -13 -60t-34 -22t-44 -4h-211v-23q0 -50 36.5 -79.5t93.5 -29.5q35 0 57 10t37 19t28 9t22 -8t14 -19t5 -20q0 -15 -20.5 -33t-57.5 -30.5
t-88 -12.5zM142 274h166q22 0 29.5 6t7.5 24q0 26 -13 48.5t-36 35t-52 12.5q-28 0 -51 -12t-37 -33t-14 -49v-32zM149 535q-11 0 -18.5 10.5t-7.5 24.5q0 19 18 31l80 56q8 5 17 5q10 0 17 -5l80 -55q18 -13 18 -33q0 -13 -7 -23.5t-18 -10.5q-2 0 -4.5 1t-5.5 2l-80 56
l-80 -56q-2 -1 -4.5 -2t-4.5 -1zM201 639q-14 0 -24.5 13.5t-10.5 27.5q0 18 15 26l124 63q6 2 11 2q15 0 24.5 -13.5t9.5 -27.5q0 -19 -16 -27l-121 -61l-6 -2t-6 -1z" />
    <glyph glyph-name="uni1EC0" unicode="&#x1ec0;" horiz-adv-x="498" 
d="M113 0q-17 0 -32 9t-15 26v661q0 17 15 26t32 9h356q19 0 27 -15t8 -31q0 -19 -9 -33.5t-26 -14.5h-297v-229h154q17 0 26 -13t9 -30q0 -14 -8 -27.5t-27 -13.5h-154v-230h297q17 0 26 -14t9 -34q0 -16 -8 -31t-27 -15h-356zM200 796q-11 0 -18.5 10.5t-7.5 24.5
q0 19 18 31l80 56q8 5 17 5q10 0 17 -5l80 -55q18 -13 18 -33q0 -13 -7 -23.5t-18 -10.5q-2 0 -4.5 1t-5.5 2l-80 56l-80 -56q-2 -1 -4.5 -2t-4.5 -1zM374 896q-4 0 -7 1l-6 2l-121 61q-16 8 -16 27q0 14 9.5 27.5t24.5 13.5q5 0 11 -2l124 -63q15 -8 15 -26
q0 -14 -9.5 -27.5t-24.5 -13.5z" />
    <glyph glyph-name="uni1EC1" unicode="&#x1ec1;" horiz-adv-x="445" 
d="M269 -8q-68 0 -120 25t-82 69.5t-30 104.5v95q0 53 28.5 97t75.5 70.5t104 26.5q54 0 99 -23.5t72.5 -65.5t27.5 -96q0 -42 -13 -60t-34 -22t-44 -4h-211v-23q0 -50 36.5 -79.5t93.5 -29.5q35 0 57 10t37 19t28 9t22 -8t14 -19t5 -20q0 -15 -20.5 -33t-57.5 -30.5
t-88 -12.5zM142 274h166q22 0 29.5 6t7.5 24q0 26 -13 48.5t-36 35t-52 12.5q-28 0 -51 -12t-37 -33t-14 -49v-32zM149 537q-11 0 -18.5 10.5t-7.5 24.5q0 19 18 31l80 56q8 5 17 5q10 0 17 -5l80 -55q18 -13 18 -33q0 -13 -7 -23.5t-18 -10.5q-2 0 -4.5 1t-5.5 2l-80 56
l-80 -56q-2 -1 -4.5 -2t-4.5 -1zM323 637q-4 0 -7 1l-6 2l-121 61q-16 8 -16 27q0 14 9.5 27.5t24.5 13.5q5 0 11 -2l124 -63q15 -8 15 -26q0 -14 -9.5 -27.5t-24.5 -13.5z" />
    <glyph glyph-name="uni1EC2" unicode="&#x1ec2;" horiz-adv-x="522" 
d="M113 0q-17 0 -32 9t-15 26v661q0 17 15 26t32 9h356q19 0 27 -15t8 -31q0 -19 -9 -33.5t-26 -14.5h-297v-229h154q17 0 26 -13t9 -30q0 -14 -8 -27.5t-27 -13.5h-154v-230h297q17 0 26 -14t9 -34q0 -16 -8 -31t-27 -15h-356zM191 801q-11 0 -18.5 10.5t-7.5 24.5
q0 19 18 31l80 56q8 5 17 5q10 0 17 -5l80 -55q18 -13 18 -33q0 -13 -7 -23.5t-18 -10.5q-2 0 -4.5 1t-5.5 2l-80 56l-80 -56q-2 -1 -4.5 -2t-4.5 -1zM322 1030q14 12 31 19.5t39 7.5q33 0 50.5 -12t24.5 -28.5t7 -31.5t-6 -27.5t-18 -25.5q-7 -7 -11.5 -14t-4.5 -14
q-1 -9 -8 -15t-17 -6t-17 6t-7 15t3.5 18t10.5 18q10 12 17 21.5t7 18.5q0 12 -9.5 19.5t-22.5 7.5t-22.5 -5.5t-17.5 -11.5q-7 -5 -16 -6t-18 9q-8 9 -5.5 19.5t10.5 17.5z" />
    <glyph glyph-name="uni1EC3" unicode="&#x1ec3;" horiz-adv-x="475" 
d="M269 -8q-68 0 -120 25t-82 69.5t-30 104.5v95q0 53 28.5 97t75.5 70.5t104 26.5q54 0 99 -23.5t72.5 -65.5t27.5 -96q0 -42 -13 -60t-34 -22t-44 -4h-211v-23q0 -50 36.5 -79.5t93.5 -29.5q35 0 57 10t37 19t28 9t22 -8t14 -19t5 -20q0 -15 -20.5 -33t-57.5 -30.5
t-88 -12.5zM142 274h166q22 0 29.5 6t7.5 24q0 26 -13 48.5t-36 35t-52 12.5q-28 0 -51 -12t-37 -33t-14 -49v-32zM155 553q-11 0 -18.5 10.5t-7.5 24.5q0 19 18 31l80 56q8 5 17 5q10 0 17 -5l80 -55q18 -13 18 -33q0 -13 -7 -23.5t-18 -10.5q-2 0 -4.5 1t-5.5 2l-80 56
l-80 -56q-2 -1 -4.5 -2t-4.5 -1zM286 782q14 12 31 19.5t39 7.5q33 0 50.5 -12t24.5 -28.5t7 -31.5t-6 -27.5t-18 -25.5q-7 -7 -11.5 -14t-4.5 -14q-1 -9 -8 -15t-17 -6t-17 6t-7 15t3.5 18t10.5 18q10 12 17 21.5t7 18.5q0 12 -9.5 19.5t-22.5 7.5t-22.5 -5.5t-17.5 -11.5
q-7 -5 -16 -6t-18 9q-8 9 -5.5 19.5t10.5 17.5z" />
    <glyph glyph-name="uni1EC4" unicode="&#x1ec4;" horiz-adv-x="498" 
d="M113 0q-17 0 -32 9t-15 26v661q0 17 15 26t32 9h356q19 0 27 -15t8 -31q0 -19 -9 -33.5t-26 -14.5h-297v-229h154q17 0 26 -13t9 -30q0 -14 -8 -27.5t-27 -13.5h-154v-230h297q17 0 26 -14t9 -34q0 -16 -8 -31t-27 -15h-356zM200 794q-11 0 -18.5 10.5t-7.5 24.5
q0 19 18 31l80 56q8 5 17 5q10 0 17 -5l80 -55q18 -13 18 -33q0 -13 -7 -23.5t-18 -10.5q-2 0 -4.5 1t-5.5 2l-80 56l-80 -56q-2 -1 -4.5 -2t-4.5 -1zM377 892q-30 0 -51.5 8t-41.5 15.5t-46 7.5q-21 0 -35 -6.5t-24 -13.5t-19 -7q-10 0 -16.5 6.5t-9 15.5t-2.5 14
q0 20 9.5 32t24 19t29 10t24.5 3q28 0 49 -7.5t42 -15.5t47 -8q22 0 35 6.5t22.5 12.5t19.5 6q11 0 17 -6.5t8.5 -14.5t2.5 -13q0 -21 -9.5 -33.5t-23.5 -19.5t-28.5 -9t-23.5 -2z" />
    <glyph glyph-name="uni1EC5" unicode="&#x1ec5;" horiz-adv-x="445" 
d="M269 -8q-68 0 -120 25t-82 69.5t-30 104.5v95q0 53 28.5 97t75.5 70.5t104 26.5q54 0 99 -23.5t72.5 -65.5t27.5 -96q0 -42 -13 -60t-34 -22t-44 -4h-211v-23q0 -50 36.5 -79.5t93.5 -29.5q35 0 57 10t37 19t28 9t22 -8t14 -19t5 -20q0 -15 -20.5 -33t-57.5 -30.5
t-88 -12.5zM142 274h166q22 0 29.5 6t7.5 24q0 26 -13 48.5t-36 35t-52 12.5q-28 0 -51 -12t-37 -33t-14 -49v-32zM149 535q-11 0 -18.5 10.5t-7.5 24.5q0 19 18 31l80 56q8 5 17 5q10 0 17 -5l80 -55q18 -13 18 -33q0 -13 -7 -23.5t-18 -10.5q-2 0 -4.5 1t-5.5 2l-80 56
l-80 -56q-2 -1 -4.5 -2t-4.5 -1zM326 633q-30 0 -51.5 8t-41.5 15.5t-46 7.5q-21 0 -35 -6.5t-24 -13.5t-19 -7q-10 0 -16.5 6.5t-9 15.5t-2.5 14q0 20 9.5 32t24 19t29 10t24.5 3q28 0 49 -7.5t42 -15.5t47 -8q22 0 35 6.5t22.5 12.5t19.5 6q11 0 17 -6.5t8.5 -14.5
t2.5 -13q0 -21 -9.5 -33.5t-23.5 -19.5t-28.5 -9t-23.5 -2z" />
    <glyph glyph-name="uni1EC6" unicode="&#x1ec6;" horiz-adv-x="498" 
d="M113 0q-17 0 -32 9t-15 26v661q0 17 15 26t32 9h356q19 0 27 -15t8 -31q0 -19 -9 -33.5t-26 -14.5h-297v-229h154q17 0 26 -13t9 -30q0 -14 -8 -27.5t-27 -13.5h-154v-230h297q17 0 26 -14t9 -34q0 -16 -8 -31t-27 -15h-356zM260 -132q-26 0 -43 18t-17 42q0 25 17 42.5
t43 17.5q24 0 41.5 -17.5t17.5 -42.5q0 -24 -17.5 -42t-41.5 -18zM176 841q-11 0 -18.5 10.5t-7.5 24.5q0 9 4.5 17.5t13.5 13.5l104 56q9 5 17 5t17 -5l104 -55q11 -5 15 -14.5t4 -18.5q0 -13 -7 -23.5t-19 -10.5q-2 0 -4.5 1t-5.5 2l-104 56l-104 -56q-2 -1 -4.5 -2
t-4.5 -1z" />
    <glyph glyph-name="uni1EC7" unicode="&#x1ec7;" horiz-adv-x="445" 
d="M269 -8q-68 0 -120 25t-82 69.5t-30 104.5v95q0 53 28.5 97t75.5 70.5t104 26.5q54 0 99 -23.5t72.5 -65.5t27.5 -96q0 -42 -13 -60t-34 -22t-44 -4h-211v-23q0 -50 36.5 -79.5t93.5 -29.5q35 0 57 10t37 19t28 9t22 -8t14 -19t5 -20q0 -15 -20.5 -33t-57.5 -30.5
t-88 -12.5zM142 274h166q22 0 29.5 6t7.5 24q0 26 -13 48.5t-36 35t-52 12.5q-28 0 -51 -12t-37 -33t-14 -49v-32zM240 -132q-26 0 -43 18t-17 42q0 25 17 42.5t43 17.5q24 0 41.5 -17.5t17.5 -42.5q0 -24 -17.5 -42t-41.5 -18zM125 582q-11 0 -18.5 10.5t-7.5 24.5
q0 9 4.5 17.5t13.5 13.5l104 56q9 5 17 5t17 -5l104 -55q11 -5 15 -14.5t4 -18.5q0 -13 -7 -23.5t-19 -10.5q-2 0 -4.5 1t-5.5 2l-104 56l-104 -56q-2 -1 -4.5 -2t-4.5 -1z" />
    <glyph glyph-name="uni1EC8" unicode="&#x1ec8;" horiz-adv-x="238" 
d="M119 0q-20 0 -36.5 9t-16.5 26v662q0 18 16.5 26t36.5 8t36.5 -8t16.5 -26v-662q0 -17 -16.5 -26t-36.5 -9zM39 945q14 12 31 19.5t39 7.5q33 0 50.5 -12t24.5 -28.5t7 -31.5t-6 -27.5t-18 -25.5q-7 -7 -11.5 -14t-4.5 -14q-1 -9 -8 -15t-17 -6t-17 6t-7 15t3.5 18
t10.5 18q10 12 17 21.5t7 18.5q0 12 -9.5 19.5t-22.5 7.5t-22.5 -5.5t-17.5 -11.5q-7 -5 -16 -6t-18 9q-8 9 -5.5 19.5t10.5 17.5z" />
    <glyph glyph-name="uni1EC9" unicode="&#x1ec9;" horiz-adv-x="214" 
d="M107 0q-23 0 -37.5 11t-14.5 24v405q0 15 14.5 24.5t37.5 9.5q22 0 37.5 -9.5t15.5 -24.5v-405q0 -13 -15.5 -24t-37.5 -11zM27 696q14 12 31 19.5t39 7.5q33 0 50.5 -12t24.5 -28.5t7 -31.5t-6 -27.5t-18 -25.5q-7 -7 -11.5 -14t-4.5 -14q-1 -9 -8 -15t-17 -6t-17 6
t-7 15t3.5 18t10.5 18q10 12 17 21.5t7 18.5q0 12 -9.5 19.5t-22.5 7.5t-22.5 -5.5t-17.5 -11.5q-7 -5 -16 -6t-18 9q-8 9 -5.5 19.5t10.5 17.5z" />
    <glyph glyph-name="uni1ECA" unicode="&#x1eca;" horiz-adv-x="202" 
d="M119 0q-20 0 -36.5 9t-16.5 26v662q0 18 16.5 26t36.5 8t36.5 -8t16.5 -26v-662q0 -17 -16.5 -26t-36.5 -9zM112 -132q-26 0 -43 18t-17 42q0 25 17 42.5t43 17.5q24 0 41.5 -17.5t17.5 -42.5q0 -24 -17.5 -42t-41.5 -18z" />
    <glyph glyph-name="uni1ECB" unicode="&#x1ecb;" horiz-adv-x="171" 
d="M107 593q-25 0 -43 17t-18 38q0 23 18 39t43 16t42.5 -16t17.5 -39q0 -21 -17.5 -38t-42.5 -17zM107 0q-23 0 -37.5 11t-14.5 24v405q0 15 14.5 24.5t37.5 9.5q22 0 37.5 -9.5t15.5 -24.5v-405q0 -13 -15.5 -24t-37.5 -11zM97 -132q-26 0 -43 18t-17 42q0 25 17 42.5
t43 17.5q24 0 41.5 -17.5t17.5 -42.5q0 -24 -17.5 -42t-41.5 -18z" />
    <glyph glyph-name="uni1ECC" unicode="&#x1ecc;" horiz-adv-x="543" 
d="M283 -6q-64 0 -114.5 22t-80 71t-29.5 130v291q0 81 29.5 130t80 71t114.5 22q63 0 114 -22t81 -71t30 -130v-291q0 -81 -30 -130t-81 -71t-114 -22zM283 88q55 0 87 31.5t32 97.5v291q0 66 -31.5 97.5t-87.5 31.5t-87.5 -31.5t-31.5 -97.5v-291q0 -66 31.5 -97.5
t87.5 -31.5zM283 -132q-26 0 -43 18t-17 42q0 25 17 42.5t43 17.5q24 0 41.5 -17.5t17.5 -42.5q0 -24 -17.5 -42t-41.5 -18z" />
    <glyph glyph-name="uni1ECD" unicode="&#x1ecd;" horiz-adv-x="455" 
d="M242 -8q-54 0 -101 28t-75.5 73.5t-28.5 97.5v92q0 53 27.5 98t75 72t103.5 27t103 -26.5t75.5 -71t28.5 -99.5v-92q0 -51 -28.5 -97t-76 -74t-103.5 -28zM243 85q28 0 51 15t37 39.5t14 51.5v92q0 26 -14 50t-37 39t-51 15q-29 0 -51.5 -15t-36 -39t-13.5 -50v-92
q0 -27 13.5 -51.5t36.5 -39.5t51 -15zM239 -132q-26 0 -43 18t-17 42q0 25 17 42.5t43 17.5q24 0 41.5 -17.5t17.5 -42.5q0 -24 -17.5 -42t-41.5 -18z" />
    <glyph glyph-name="uni1ECE" unicode="&#x1ece;" horiz-adv-x="566" 
d="M283 -6q-64 0 -114.5 22t-80 71t-29.5 130v291q0 81 29.5 130t80 71t114.5 22q63 0 114 -22t81 -71t30 -130v-291q0 -81 -30 -130t-81 -71t-114 -22zM283 88q55 0 87 31.5t32 97.5v291q0 66 -31.5 97.5t-87.5 31.5t-87.5 -31.5t-31.5 -97.5v-291q0 -66 31.5 -97.5
t87.5 -31.5zM204 945q14 12 31 19.5t39 7.5q33 0 50.5 -12t24.5 -28.5t7 -31.5t-6 -27.5t-18 -25.5q-7 -7 -11.5 -14t-4.5 -14q-1 -9 -8 -15t-17 -6t-17 6t-7 15t3.5 18t10.5 18q10 12 17 21.5t7 18.5q0 12 -9.5 19.5t-22.5 7.5t-22.5 -5.5t-17.5 -11.5q-7 -5 -16 -6t-18 9
q-8 9 -5.5 19.5t10.5 17.5z" />
    <glyph glyph-name="uni1ECF" unicode="&#x1ecf;" horiz-adv-x="486" 
d="M242 -8q-54 0 -101 28t-75.5 73.5t-28.5 97.5v92q0 53 27.5 98t75 72t103.5 27t103 -26.5t75.5 -71t28.5 -99.5v-92q0 -51 -28.5 -97t-76 -74t-103.5 -28zM243 85q28 0 51 15t37 39.5t14 51.5v92q0 26 -14 50t-37 39t-51 15q-29 0 -51.5 -15t-36 -39t-13.5 -50v-92
q0 -27 13.5 -51.5t36.5 -39.5t51 -15zM163 696q14 12 31 19.5t39 7.5q33 0 50.5 -12t24.5 -28.5t7 -31.5t-6 -27.5t-18 -25.5q-7 -7 -11.5 -14t-4.5 -14q-1 -9 -8 -15t-17 -6t-17 6t-7 15t3.5 18t10.5 18q10 12 17 21.5t7 18.5q0 12 -9.5 19.5t-22.5 7.5t-22.5 -5.5
t-17.5 -11.5q-7 -5 -16 -6t-18 9q-8 9 -5.5 19.5t10.5 17.5z" />
    <glyph glyph-name="uni1ED0" unicode="&#x1ed0;" horiz-adv-x="543" 
d="M283 -6q-64 0 -114.5 22t-80 71t-29.5 130v291q0 81 29.5 130t80 71t114.5 22q63 0 114 -22t81 -71t30 -130v-291q0 -81 -30 -130t-81 -71t-114 -22zM283 88q55 0 87 31.5t32 97.5v291q0 66 -31.5 97.5t-87.5 31.5t-87.5 -31.5t-31.5 -97.5v-291q0 -66 31.5 -97.5
t87.5 -31.5zM192 794q-11 0 -18.5 10.5t-7.5 24.5q0 19 18 31l80 56q8 5 17 5q10 0 17 -5l80 -55q18 -13 18 -33q0 -13 -7 -23.5t-18 -10.5q-2 0 -4.5 1t-5.5 2l-80 56l-80 -56q-2 -1 -4.5 -2t-4.5 -1zM244 898q-14 0 -24.5 13.5t-10.5 27.5q0 18 15 26l124 63q6 2 11 2
q15 0 24.5 -13.5t9.5 -27.5q0 -19 -16 -27l-121 -61l-6 -2t-6 -1z" />
    <glyph glyph-name="uni1ED1" unicode="&#x1ed1;" horiz-adv-x="455" 
d="M242 -8q-54 0 -101 28t-75.5 73.5t-28.5 97.5v92q0 53 27.5 98t75 72t103.5 27t103 -26.5t75.5 -71t28.5 -99.5v-92q0 -51 -28.5 -97t-76 -74t-103.5 -28zM243 85q28 0 51 15t37 39.5t14 51.5v92q0 26 -14 50t-37 39t-51 15q-29 0 -51.5 -15t-36 -39t-13.5 -50v-92
q0 -27 13.5 -51.5t36.5 -39.5t51 -15zM148 535q-11 0 -18.5 10.5t-7.5 24.5q0 19 18 31l80 56q8 5 17 5q10 0 17 -5l80 -55q18 -13 18 -33q0 -13 -7 -23.5t-18 -10.5q-2 0 -4.5 1t-5.5 2l-80 56l-80 -56q-2 -1 -4.5 -2t-4.5 -1zM200 639q-14 0 -24.5 13.5t-10.5 27.5
q0 18 15 26l124 63q6 2 11 2q15 0 24.5 -13.5t9.5 -27.5q0 -19 -16 -27l-121 -61l-6 -2t-6 -1z" />
    <glyph glyph-name="uni1ED2" unicode="&#x1ed2;" horiz-adv-x="543" 
d="M283 -6q-64 0 -114.5 22t-80 71t-29.5 130v291q0 81 29.5 130t80 71t114.5 22q63 0 114 -22t81 -71t30 -130v-291q0 -81 -30 -130t-81 -71t-114 -22zM283 88q55 0 87 31.5t32 97.5v291q0 66 -31.5 97.5t-87.5 31.5t-87.5 -31.5t-31.5 -97.5v-291q0 -66 31.5 -97.5
t87.5 -31.5zM192 796q-11 0 -18.5 10.5t-7.5 24.5q0 19 18 31l80 56q8 5 17 5q10 0 17 -5l80 -55q18 -13 18 -33q0 -13 -7 -23.5t-18 -10.5q-2 0 -4.5 1t-5.5 2l-80 56l-80 -56q-2 -1 -4.5 -2t-4.5 -1zM366 896q-4 0 -7 1l-6 2l-121 61q-16 8 -16 27q0 14 9.5 27.5
t24.5 13.5q5 0 11 -2l124 -63q15 -8 15 -26q0 -14 -9.5 -27.5t-24.5 -13.5z" />
    <glyph glyph-name="uni1ED3" unicode="&#x1ed3;" horiz-adv-x="455" 
d="M242 -8q-54 0 -101 28t-75.5 73.5t-28.5 97.5v92q0 53 27.5 98t75 72t103.5 27t103 -26.5t75.5 -71t28.5 -99.5v-92q0 -51 -28.5 -97t-76 -74t-103.5 -28zM243 85q28 0 51 15t37 39.5t14 51.5v92q0 26 -14 50t-37 39t-51 15q-29 0 -51.5 -15t-36 -39t-13.5 -50v-92
q0 -27 13.5 -51.5t36.5 -39.5t51 -15zM148 537q-11 0 -18.5 10.5t-7.5 24.5q0 19 18 31l80 56q8 5 17 5q10 0 17 -5l80 -55q18 -13 18 -33q0 -13 -7 -23.5t-18 -10.5q-2 0 -4.5 1t-5.5 2l-80 56l-80 -56q-2 -1 -4.5 -2t-4.5 -1zM322 637q-4 0 -7 1l-6 2l-121 61
q-16 8 -16 27q0 14 9.5 27.5t24.5 13.5q5 0 11 -2l124 -63q15 -8 15 -26q0 -14 -9.5 -27.5t-24.5 -13.5z" />
    <glyph glyph-name="uni1ED4" unicode="&#x1ed4;" horiz-adv-x="566" 
d="M283 -6q-64 0 -114.5 22t-80 71t-29.5 130v291q0 81 29.5 130t80 71t114.5 22q63 0 114 -22t81 -71t30 -130v-291q0 -81 -30 -130t-81 -71t-114 -22zM283 88q55 0 87 31.5t32 97.5v291q0 66 -31.5 97.5t-87.5 31.5t-87.5 -31.5t-31.5 -97.5v-291q0 -66 31.5 -97.5
t87.5 -31.5zM193 801q-11 0 -18.5 10.5t-7.5 24.5q0 19 18 31l80 56q8 5 17 5q10 0 17 -5l80 -55q18 -13 18 -33q0 -13 -7 -23.5t-18 -10.5q-2 0 -4.5 1t-5.5 2l-80 56l-80 -56q-2 -1 -4.5 -2t-4.5 -1zM324 1030q14 12 31 19.5t39 7.5q33 0 50.5 -12t24.5 -28.5t7 -31.5
t-6 -27.5t-18 -25.5q-7 -7 -11.5 -14t-4.5 -14q-1 -9 -8 -15t-17 -6t-17 6t-7 15t3.5 18t10.5 18q10 12 17 21.5t7 18.5q0 12 -9.5 19.5t-22.5 7.5t-22.5 -5.5t-17.5 -11.5q-7 -5 -16 -6t-18 9q-8 9 -5.5 19.5t10.5 17.5z" />
    <glyph glyph-name="uni1ED5" unicode="&#x1ed5;" horiz-adv-x="486" 
d="M242 -8q-54 0 -101 28t-75.5 73.5t-28.5 97.5v92q0 53 27.5 98t75 72t103.5 27t103 -26.5t75.5 -71t28.5 -99.5v-92q0 -51 -28.5 -97t-76 -74t-103.5 -28zM243 85q28 0 51 15t37 39.5t14 51.5v92q0 26 -14 50t-37 39t-51 15q-29 0 -51.5 -15t-36 -39t-13.5 -50v-92
q0 -27 13.5 -51.5t36.5 -39.5t51 -15zM153 553q-11 0 -18.5 10.5t-7.5 24.5q0 19 18 31l80 56q8 5 17 5q10 0 17 -5l80 -55q18 -13 18 -33q0 -13 -7 -23.5t-18 -10.5q-2 0 -4.5 1t-5.5 2l-80 56l-80 -56q-2 -1 -4.5 -2t-4.5 -1zM284 781q14 12 31 19.5t39 7.5q33 0 50.5 -12
t24.5 -28.5t7 -31.5t-6 -27.5t-18 -25.5q-7 -7 -11.5 -14t-4.5 -14q-1 -9 -8 -15t-17 -6t-17 6t-7 15t3.5 18t10.5 18q10 12 17 21.5t7 18.5q0 12 -9.5 19.5t-22.5 7.5t-22.5 -5.5t-17.5 -11.5q-7 -5 -16 -6t-18 9q-8 9 -5.5 19.5t10.5 17.5z" />
    <glyph glyph-name="uni1ED6" unicode="&#x1ed6;" horiz-adv-x="543" 
d="M283 -6q-64 0 -114.5 22t-80 71t-29.5 130v291q0 81 29.5 130t80 71t114.5 22q63 0 114 -22t81 -71t30 -130v-291q0 -81 -30 -130t-81 -71t-114 -22zM283 88q55 0 87 31.5t32 97.5v291q0 66 -31.5 97.5t-87.5 31.5t-87.5 -31.5t-31.5 -97.5v-291q0 -66 31.5 -97.5
t87.5 -31.5zM192 794q-11 0 -18.5 10.5t-7.5 24.5q0 19 18 31l80 56q8 5 17 5q10 0 17 -5l80 -55q18 -13 18 -33q0 -13 -7 -23.5t-18 -10.5q-2 0 -4.5 1t-5.5 2l-80 56l-80 -56q-2 -1 -4.5 -2t-4.5 -1zM369 892q-30 0 -51.5 8t-41.5 15.5t-46 7.5q-21 0 -35 -6.5t-24 -13.5
t-19 -7q-10 0 -16.5 6.5t-9 15.5t-2.5 14q0 20 9.5 32t24 19t29 10t24.5 3q28 0 49 -7.5t42 -15.5t47 -8q22 0 35 6.5t22.5 12.5t19.5 6q11 0 17 -6.5t8.5 -14.5t2.5 -13q0 -21 -9.5 -33.5t-23.5 -19.5t-28.5 -9t-23.5 -2z" />
    </font>
</defs>
</svg>
